dark phoenix 2019 big little lies avengers American Dad anna 2019 0 john wick dumbo 2019 aladdin 2019 avengers endgame john wick chapter 3 – parabellum 2019 big little lies s02e03 proper alita battle angel 2019 the secret life of pets 2 2019 ma 2019 chernobyl ita wwe escape plan the extractors 2019 Captain Marvel yts the handmaids tale s03e05 the handmaids tale wentworth s07e05 the 100 childs play 2019 Pet Sematary 2.0 (2018) toy story 4 2019 pokemon detective pikachu 2019 after 2019 ddr godzilla king of the monsters 2019 hellboy 2019 rocketman 2019 masterchef australia hindi brightburn 2019 avengers endgame 2019 murder mystery 2019 final space evo chernobyl dark shazam 2019 shaft 2019 grand hotel s01e02 etmovies john wick 3 ettv us 2019 fear the walking dead s05e04 love hip hop atlanta s08e15 ita legion etrg kabir singh captain marvel 2019 shazam legion s03e01 final space s02e01 wentworth Pet Sematary 2019 xxx arrow español men in black international 2019 little 2019 ethd Last Week Tonight the intruder 2019 alita the 100 s06e08 
Warning! Use a VPN When Downloading Torrents!
Your IP Address is 34.228.185.211. Location is United States
Your Internet Provider is tracking your torrent activity! Hide your IP ADDRESS with a VPN!
We strongly recommend using TrustZone to anonymize your torrenting. 30 Day Money Back Guarantee!
Try it Now!
ETTV Recommended TV Shows
Blood.and.Treasure.S01E07.HDTV.x264-KILLERS[ettv] torrent
Animal.Kingdom.US.S04E05.WEBRip.x264-TBS[ettv] torrent
The.Hills.New.Beginnings.S01E01.WEB.x264-TBS[ettv] torrent
Wentworth.S07E05.WEB.x264-PHOENiX[TGx] torrent
The.100.S06E08.HDTV.x264-SVA[ettv] torrent
The.Handmaids.Tale.S03E06.WEBRip.x264-TBS[ettv] torrent

ETTV Recommended SD
Little.2019.HDRip.XViD-ETRG torrent
Shazam.2019.BDRip.XviD.AC3-EVO[EtMovies] torrent
Killer.Unicorn.2018.HDRip.XviD.AC3-EVO torrent
Feedback.2019.HDRip.XViD-ETRG torrent

ETTV Recommended HD
CTRL.2018.1080p.WEB-DL.H264.AC3-EVO[EtHD] torrent
Bittersweet Symphony.2019.1080p.WEB-DL.H264.AC3-EVO[EtHD] torrent
Shazam.2019.1080p.Bluray.Atmos.TrueHD.7.1.x264-EVO[EtHD] torrent
Feedback.2019.1080p.WEB-DL.H264.AC3-EVO[EtHD] torrent

ETTV Recommended UHD
Batman vs Teenage Mutant Ninja Turtles 2019.UHD.BluRay.2160p.DTS-HD.MA.5.1.HEVC.HDR-DDR torrent
Peter Rabbit (2018) [Bluray 2160p 4k UHD HDR10 HEVC Eng TrueHD Atmos 7.1 MultiLang DTS-HD MA 5.1-Ac3 5.1 - Multisubs] torrent
Home Alone 1990.2160p.SDR.WEB-DL.DDP5.1.HEVC-DDR torrent
The Poison Rose 2019.MULTI.2160p.SDR.WEBRip.TrueHD.5.1.HEVC-DDR torrent

ETTV Recommended Cam
Avengers Endgame 2019.Multi.1080p.HDCAMRip.HEVC.AAC[En+Desi}-DDR torrent
Anna.2019.HDCAM.x264.AC3-ETRG torrent
Dark Phoenix 2019 NEW HDCAM x264 AC3-ETRG torrent
Childs Play 2019 HDCAM x264 AC3-ETRG torrent

ETTV Recommended Foreign
The Chrysanthemum and the Guillotine (2018) 720p WEB-DL x264 Ganool torrent
Le Grand Restaurant (1966)-Louis de Funes-1080p-H264-AC 3 (DolbyDigital-5.1) & nickarad torrent
Shazam (2019) 720p BluRay x264 ORG [Dual Audio] [Hindi 5.1 + English 5.1] AAC ESub.-.LHDm torrent
Kung Fu League (2018)-Chen Zhen-1080p-H264-AC 3 (DolbyDigital-5.1) & nickarad torrent


Download Torrent "Ant-Man and the Wasp (2018) 720p BluRay x264 Dual Audio [Hindi DD5.1 (RM) D..."

IMDB Details
Description:

N/A

Genre:

N/A

Download Torrent (Magnet)
Download Torrent (File)
Seeds: 272
Leechers: 496
Completed: 2,411 
Last Checked: 05-10-2018 15:27:05


Loading...
Details
Title:Ant-Man and the Wasp (2018) 720p BluRay x264 Dual Audio [Hindi DD5.1 (RM) D...
Description:






[color=#0000FF][b]Join My Facebook Group[/b][/color]

Ant-Man and the Wasp (2018) 720p BluRay x264 Dual Audio [Hindi DD5.1 (RM) DTH - English DD2.0] - Esub ~ Ranvijay

Buy RDP Online



General
Format : Matroska
Format version : Version 4 / Version 2
File size : 1.39 GiB
Duration : 1 h 58 min
Overall bit rate : 1 685 kb/s
Movie name : Ant-Man and the Wasp (2018) 720p BluRay x264 Dual Audio [Hindi DD5.1 (RM) DTH - English DD2.0] - Esub ~ Ranvijay

Video
ID : 1
Format : AVC
Format/Info : Advanced Video Codec
Duration : 1 h 58 min
Bit rate : 1 199 kb/s
Width : 1 280 pixels
Height : 536 pixels
Display aspect ratio : 2.40:1
Frame rate mode : Constant
Frame rate : 23.976 (24000/1001) FPS
Color space : YUV
Chroma subsampling : 4:2:0
Bit depth : 8 bits
Scan type : Progressive
Bits/(Pixel*Frame) : 0.073
Stream size : 1 012 MiB (71%)
Title : ~Ranvijay~

Audio #1
ID : 2
Format : AC-3
Format/Info : Audio Coding 3
Codec ID : A_AC3
Duration : 1 h 58 min
Bit rate mode : Constant
Bit rate : 384 kb/s
Channel(s) : 6 channels
Channel positions : Front: L C R, Side: L R, LFE
Sampling rate : 44.1 kHz
Frame rate : 28.711 FPS (1536 SPF)
Bit depth : 16 bits
Compression mode : Lossy
Stream size : 324 MiB (23%)
Title : ~Ranvijay~
Language : Hindi
Service kind : Complete Main
Default : Yes
Forced : Yes

Audio #2
ID : 3
Format : AAC
Format/Info : Advanced Audio Codec
Format profile : HE-AAC / LC
Format settings : Explicit
Codec ID : A_AAC-2
Duration : 1 h 58 min
Bit rate : 100.0 kb/s
Channel(s) : 2 channels
Channel positions : Front: L R
Sampling rate : 48.0 kHz / 24.0 kHz
Frame rate : 23.438 FPS (1024 SPF)
Compression mode : Lossy
Delay relative to video : 31 ms
Stream size : 84.5 MiB (6%)
Title : ~Ranvijay~
Language : English
Default : No
Forced : No

Text
ID : 4
Format : UTF-8
Codec ID : S_TEXT/UTF8
Codec ID/Info : UTF-8 Plain Text
Duration : 1 h 50 min
Bit rate : 65 b/s
Count of elements : 1930
Stream size : 53.5 KiB (0%)
Title : ~Ranvijay~
Language : Finnish
Default : Yes
Forced : No

Menu
00:00:00.000 : en:00:00:00.000
00:04:03.034 : en:00:04:03.034
00:10:16.407 : en:00:10:16.407
00:13:39.861 : en:00:13:39.861
00:21:25.451 : en:00:21:25.451
00:29:07.829 : en:00:29:07.829
00:36:09.084 : en:00:36:09.084
00:40:56.579 : en:00:40:56.579
00:50:17.431 : en:00:50:17.431
00:58:59.077 : en:00:58:59.077
01:04:56.434 : en:01:04:56.434
01:12:54.287 : en:01:12:54.287
01:18:32.124 : en:01:18:32.124
01:24:44.913 : en:01:24:44.913
01:29:47.340 : en:01:29:47.340
01:36:16.270 : en:01:36:16.270
01:43:35.334 : en:01:43:35.334
01:46:59.830 : en:01:46:59.830




Don't walk as you are king, walk as you don't care who the king is....!!





Category:Movies > Dubs/Dual Audio
Lang:Hindi  Hindi
Total Size:1.41 GB
Info Hash:633a9f6b8c931a3ee084be10accbadb73726b8c8
Added By:TheFighter
Date Added:05-10-2018 15:26:56

  

Files

File List: 
 File Size
Ant-Man and the Wasp (2018) 720p BluRay x264 Dual Audio [Hindi DD5.1 (RM) DTH - English DD2.0] - Esub ~ Ranvijay.mkv1.39 GB
Sample - Ant-Man and the Wasp (2018) 720p BluRay x264 Dual Audio [Hindi DD5.1 (RM) DTH - English DD2.0] - Esub ~ Ranvijay.mkv17 MB
SpecialRDP - Premium & Affordable Web Hosting Solution.url48.00 B



Loading...
Comments

There are currently no comments. Be the first one to write something !

Disclaimer: None of the files shown here are actually hosted or transmitted by this server. The links are provided solely by this site's users. The site moderation is also a service provided by the site's users. The administrator of this site (ettv.be) cannot be held responsible for what its users post, or any other actions of its users. You may not use this site to distribute or download any material when you do not have the legal rights to do so. It is your own responsibility to adhere to these terms.