kgf sarkar Manikarnika star trek discovery thakrey Xxx kedarnath thackeray malayalam the accidental prime minister supernatural evo aquaman telugu odiyan the flash why cheat india great british bake off s09e10 vikings tushy 18.12 1080p.mp4-ktr charlie chaplin 2 1080P Hindi mirzapur ettv mr majnu the grand tour 2018 ita Adanga Maru Tin Star etmovies dtone uri EVO malayalam 2018 movies AQUAMAN ita Bumblebee ethd ITA zero etrg venom f2 1080p 2018 maari 2 Game Of Thrones viswasam TamilRockers Kannada simmba Kannada ddr simbha tushyraw 1080p.mp4-ktr mortal engines simba petta DTOne uri the surgical strike kung fu the legend Young justice tamil robot 2.0 it brazzers it 2017 2.0 thakre Njan Prakashan glass fgt bohemian rhapsody Star Trek Discovery S02E02 
Warning! Use a VPN When Downloading Torrents!
Your IP Address is 34.229.194.198. Location is United States
Your Internet Provider is tracking your torrent activity! Hide your IP ADDRESS with a VPN!
We strongly recommend using TrustZone to anonymize your torrenting. 30 Day Money Back Guarantee!
Try it Now!
ETTV Recommended TV Shows
True.Detective.S03E07.WEBRip.x264-PBS[ettv] torrent
Supergirl.S04E12.HDTV.x264-SVA[ettv] torrent
Madam.Secretary.S05E14.HDTV.x264-KILLERS[ettv] torrent
The.Walking.Dead.S09E10.HDTV.x264-SVA[ettv] torrent
Charmed.2018.S01E12.HDTV.x264-SVA[ettv] torrent
WWE Elimination Chamber 2019 PPV WEB h264-KING2008 [TJET] torrent

ETTV Recommended SD
Mary.Queen.of.Scots.2018.BRRip.XViD.AC3-ETRG torrent
The.Possession.of.Hannah.Grace.2018.BRRip.XViD-ETRG torrent
Nightshooters 2018.BRRip.XViD-ETRG torrent
Serenity.2019.BRRip.XViD-ETRG torrent

ETTV Recommended HD
The.Appearance.2018.BluRay.1080p.HEVC.DTS-HD.MA5.1-DTOne torrent
You Might Be The Killer 2018.1080p.Blu-ray.HEVC.DTS-HDMA.5.1-DTOne torrent
Nightshooters.2018.1080p.Blu-ray.1080p.HEVC.DTS-HDMA.5.1-DTOne torrent
Serenity.2019.720p.BRRip.x264.AC3-ETRG torrent

ETTV Recommended UHD
The.Silence.of.the.Lambs.1991.2160p.UHDRip.x265.HDR.DTS-HD.MA.5.1-DTOne torrent
Robin.Hood.2018.UHD.BluRay.2160p.x265.Atmos.7.1-DTOne torrent
Big Pacific Season One 2018.2160p.UHD.BluRay.x265.SDR.FLAC.2.0-DTOne torrent
Close.Encounters.of.the.Third.Kind.1977.DC.4K.HDR.2160p.BDRip Ita Eng x265-NAHOM torrent

ETTV Recommended Cam
The Lego Movie 2 2019 HDCAM XViD AC3-ETRG torrent
How to Train Your Dragon 3 2018 NEW 720p HDCAM-1XBET torrent
Happy Death Day 2U.2019.HDCAM.XViD.AC3-ETRG torrent
What Men Want 2019 HDCAM x264 AC3 MP4KiNG torrent

ETTV Recommended Foreign
Robin.Hood.2018.Multi..BluRay.1080p.HEVC.Atmos.7.1-DTOne torrent
T-34 2018 1080p WEB-DL MPA2.0 H.264[EtHD] torrent
Awe! (2018) 720p UNCUT HDRip x264 Eng Subs [Dual Audio] [Hindi DD 2.0 - Telugu 5.1] Exclusive By -=!Dr.STAR!=- torrent
Taxiwala.2018.1080p.WebDL.AVC.AAC.ESub.DTOne torrent


Download Torrent "Venom (2018) 720p HD-TS Hindi Dubbed ~ Team ShareSpark"

IMDB Details
Description:

N/A

Genre:

N/A

Download Torrent (Magnet)
Download Torrent (File)
Seeds: 411
Leechers: 689
Completed: 7,178 
Last Checked: 05-10-2018 23:52:52


Loading...
Details
Title:Venom (2018) 720p HD-TS Hindi Dubbed ~ Team ShareSpark
Description:






Join My Facebook Group

Venom (2018) 720p HD-TS Hindi Dubbed ~ Team ShareSpark

Thanks To KatmovieHD For Hindi Audio

Buy RDP Online




General
Format                                   : Matroska
Format version                           : Version 4 / Version 2
File size                                : 2.55 GiB
Duration                                 : 1 h 31 min
Overall bit rate mode                    : Variable
Overall bit rate                         : 3 963 kb/s
Movie name                               : Venom (2018) 720p HD-TS Hindi Dubbed ~ Team ShareSpark

Video
ID                                       : 1
Format                                   : AVC
Format/Info                              : Advanced Video Codec
Duration                                 : 1 h 31 min
Bit rate mode                            : Variable
Bit rate                                 : 3 835 kb/s
Maximum bit rate                         : 4 000 kb/s
Width                                    : 1 280 pixels
Height                                   : 544 pixels
Display aspect ratio                     : 2.35:1
Frame rate mode                          : Constant
Frame rate                               : 23.976 (24000/1001) FPS
Standard                                 : Component
Color space                              : YUV
Chroma subsampling                       : 4:2:0
Bit depth                                : 8 bits
Scan type                                : Progressive
Bits/(Pixel*Frame)                       : 0.230
Stream size                              : 2.46 GiB (97%)
Title                                    : ~Ranvijay
Language                                 : English
Default                                  : Yes
Forced                                   : No

Audio
ID                                       : 2
Format                                   : AAC
Format/Info                              : Advanced Audio Codec
Format profile                           : LC
Codec ID                                 : A_AAC-2
Duration                                 : 1 h 31 min
Bit rate                                 : 128 kb/s
Channel(s)                               : 2 channels
Channel positions                        : Front: L R
Sampling rate                            : 48.0 kHz
Frame rate                               : 46.875 FPS (1024 SPF)
Compression mode                         : Lossy
Stream size                              : 84.1 MiB (3%)
Title                                    : ~Ranvijay
Language                                 : Hindi
Default                                  : Yes
Forced                                   : Yes











Don't walk as you are king, walk as you don't care who the king is....!!





[url=https://www.facebook.com/groups/192253191390113/][/url]
Category:Movies > CAM/TS
Lang:Hindi  Hindi
Total Size:2.57 GB
Info Hash:75920350e243af9ba00c26d6483b26fc913b147c
Added By:TheFighter
Date Added:05-10-2018 23:52:43

  

Files

File List: 
 File Size
Sample - Venom (2018) 720p HD-TS Hindi Dubbed ~ Team ShareSpark.mkv27 MB
SpecialRDP - Premium & Affordable Web Hosting Solution.url48.00 B
Venom (2018) 720p HD-TS Hindi Dubbed ~ Team ShareSpark.mkv2.55 GB



Loading...
Comments

There are currently no comments. Be the first one to write something !

Disclaimer: None of the files shown here are actually hosted or transmitted by this server. The links are provided solely by this site's users. The site moderation is also a service provided by the site's users. The administrator of this site (ettv.be) cannot be held responsible for what its users post, or any other actions of its users. You may not use this site to distribute or download any material when you do not have the legal rights to do so. It is your own responsibility to adhere to these terms.