murder mystery 2019 the secret life of pets 2 2019 aladdin 2019 john wick 2014 five feet apart 2019 motogp chernobyl aquaman 2018 toy story 4 2019 a madea family funeral 2019 hindi the intruder 2019 Jessica Jones alita battle angel 2019 once upon a time in hollywood 2019 spider man into the spider verse 2018 pokemon detective pikachu 2019 late night 2019 ettv the hustle 2019 evo the dead dont die 2019 ethd etmovies the mule 2018 us 2019 ma 2019 bohemian rhapsody 2018 ddr pet sematary 2019 little 2019 godzilla king of the monsters 2019 john wick 3 the chi s02e10 booksmart 2019 men in black international 2019 the upside 2019 glass 2019 i am mother 2019 brightburn 2019 Alita Battle Angel captain marvel hellboy 2019 captive state 2019 avengers endgame 2019 swamp thing the poison rose 2019 etrg john wick chapter 3 – parabellum 2019 marvels agents of shield s06e05 Dumbo avengers endgame alita long shot 2019 wonder park 2019 swamp thing s01e03 rocketman 2019 the curse of la llorona 2019 dark phoenix 2019 shazam 2019 the kid 2019 Dumbo 2019 the mustang 2019 hotel mumbai 2019 john wick chapter 2 2017 yts 2.0 (2018) cold pursuit 2019 captain marvel 2019 shaft 2019 chernobyl s01e01 fighting with my family 2019 
Warning! Use a VPN When Downloading Torrents!
Your IP Address is 52.204.98.217. Location is United States
Your Internet Provider is tracking your torrent activity! Hide your IP ADDRESS with a VPN!
We strongly recommend using TrustZone to anonymize your torrenting. 30 Day Money Back Guarantee!
Try it Now!
ETTV Recommended TV Shows
Fear.the.Walking.Dead.S05E03.WEB.h264-TBS[ettv] torrent
The.Handmaids.Tale.S03E02.HDTV.x264-MTB[ettv] torrent
Deep.State.S02E07.WEBRip.x264-TBS[ettv] torrent
Euphoria.US.S01E01.WEB.h264-TBS[ettv] torrent
American.Princess.2019.S01E04.WEB.h264-TBS[ettv] torrent
Big.Little.Lies.S02E02.WEB.h264-TBS[ettv] torrent

ETTV Recommended SD
The.Tale.2018.BRRip.XviD.AC3-EVO torrent
American.Exit.2019.BDRip.XviD.AC3-EVO torrent
A.Haunting.At.Silver.Falls.The.Return.2019.HDRip.XviD.AC3-EVO torrent
The.Night.Sitter.2018.HDRip.XViD-ETRG torrent

ETTV Recommended HD
 Dumbo 2019 1080p BRRip X264 AC-3 - 5,1 KINGDOM-RG torrent
American.Beauty.1999.1080p.NF.WEB-DL.H264-ETRG[EtHD] torrent
City of Lies (2019) (1080p BluRay x265 HEVC 10bit DTS 5.1 Qman) [UTR] torrent
Self.less.2015.BDRip.1080p.x264.DTS.DD5.1.Gerald torrent

ETTV Recommended UHD
Thor Ragnarok (2017) (2160p BluRay x265 HEVC 10bit AAC 7.1 Joy) [UTR] torrent
Godzilla.1998.4K.HDR.2160p.BDRip Ita Eng x265-NAHOM torrent
The.Mummy.2017.4K.HDR.2160p.BDRip Ita Eng x265-NAHOM torrent
Us.2019.2160p.BluRay.x265.10bit.HDR.DTS-HD.MA.TrueHD.7.1.Atmos-SWTYBLZ torrent

ETTV Recommended Cam
Dark.Phoenix.2019.HDTC.XViD.AC3-ETRG torrent
Godzilla King of the Monsters 2019 NEW HDCAM x264 AC3-ETRG torrent
Men in Black International 2019 HDCAM x264 AC3-ETRG torrent
Shaft.2019.HDTC.x264.AC3-ETRG torrent

ETTV Recommended Foreign
100.2019.1080p.WEB-DL.AVC.AC3 5.1.ESub.DDR torrent
I Nipoti Di Zorro (1968), [DTTrip - H264 - Ita Ac3] HDTVrip 1080i - by Lg Studios  [TNTVillage] MIRCrew torrent
Luckee.2019.720p.NF.Marathi.WEB-DL.H264-ETRG[EtHD] torrent
 The Emoji Movie (2017) x264 720p BluRay Dual Subs {Dual Audio} [Hindi ORG DD 2.0 + English 2.0] Exclusive By DREDD torrent


Download Torrent "Venom (2018) 720p HD-TS Hindi Dubbed ~ Team ShareSpark"

IMDB Details
Description:

N/A

Genre:

N/A

Download Torrent (Magnet)
Download Torrent (File)
Seeds: 411
Leechers: 689
Completed: 7,178 
Last Checked: 05-10-2018 23:52:52


Loading...
Details
Title:Venom (2018) 720p HD-TS Hindi Dubbed ~ Team ShareSpark
Description:






[color=#0000FF][b]Join My Facebook Group[/b][/color]

Venom (2018) 720p HD-TS Hindi Dubbed ~ Team ShareSpark

Thanks To KatmovieHD For Hindi Audio

Buy RDP Online




General
Format : Matroska
Format version : Version 4 / Version 2
File size : 2.55 GiB
Duration : 1 h 31 min
Overall bit rate mode : Variable
Overall bit rate : 3 963 kb/s
Movie name : Venom (2018) 720p HD-TS Hindi Dubbed ~ Team ShareSpark

Video
ID : 1
Format : AVC
Format/Info : Advanced Video Codec
Duration : 1 h 31 min
Bit rate mode : Variable
Bit rate : 3 835 kb/s
Maximum bit rate : 4 000 kb/s
Width : 1 280 pixels
Height : 544 pixels
Display aspect ratio : 2.35:1
Frame rate mode : Constant
Frame rate : 23.976 (24000/1001) FPS
Standard : Component
Color space : YUV
Chroma subsampling : 4:2:0
Bit depth : 8 bits
Scan type : Progressive
Bits/(Pixel*Frame) : 0.230
Stream size : 2.46 GiB (97%)
Title : ~Ranvijay
Language : English
Default : Yes
Forced : No

Audio
ID : 2
Format : AAC
Format/Info : Advanced Audio Codec
Format profile : LC
Codec ID : A_AAC-2
Duration : 1 h 31 min
Bit rate : 128 kb/s
Channel(s) : 2 channels
Channel positions : Front: L R
Sampling rate : 48.0 kHz
Frame rate : 46.875 FPS (1024 SPF)
Compression mode : Lossy
Stream size : 84.1 MiB (3%)
Title : ~Ranvijay
Language : Hindi
Default : Yes
Forced : Yes











Don't walk as you are king, walk as you don't care who the king is....!!





Category:Movies > CAM/TS
Lang:Hindi  Hindi
Total Size:2.57 GB
Info Hash:75920350e243af9ba00c26d6483b26fc913b147c
Added By:TheFighter
Date Added:05-10-2018 23:52:43

  

Files

File List: 
 File Size
Sample - Venom (2018) 720p HD-TS Hindi Dubbed ~ Team ShareSpark.mkv27 MB
SpecialRDP - Premium & Affordable Web Hosting Solution.url48.00 B
Venom (2018) 720p HD-TS Hindi Dubbed ~ Team ShareSpark.mkv2.55 GB



Loading...
Comments

There are currently no comments. Be the first one to write something !

Disclaimer: None of the files shown here are actually hosted or transmitted by this server. The links are provided solely by this site's users. The site moderation is also a service provided by the site's users. The administrator of this site (ettv.be) cannot be held responsible for what its users post, or any other actions of its users. You may not use this site to distribute or download any material when you do not have the legal rights to do so. It is your own responsibility to adhere to these terms.