The Third Day s01e06 The Walking Dead World Beyond S01E03 Big Brother S22E32 The New Mutants 2020 Love and Monsters 2020 evo ita Love and Monsters Helstrom S01E04 tgx tenet Filthy Rich S01E04 greenland 2020 The Doorman 2020 yts Fear the Walking Dead S06E02 warrior ettv Xxx Fargo S04E05 rq.mp4 Mirzapur The Third Day Star Trek Discovery s03e01 family guy ethd 2160p Honest Thief 2020 supernatural neXt s01e02 The Wolf of Snow Hollow 2020 etrg The Trial of the Chicago 7 2020 fear the walking dead Mulan 2020 unhinged the boys star trek discovery the walking dead 2067 2020 Unhinged 2020 hindi 2020 Helstrom s01e02 The Bachelorette S16E02 Below Deck Mediterranean S05E21 next The Simpsons s32e04 Next S01E03 Black Box 2020 fargo the voice s19e01 After We Collided 2020 Lovecraft Country Warrior S02E03 Helstrom s01e03 Tenet 2020 Last Week Tonight with John Oliver s07e26 hindi Helstrom S01E01 ddr Malayalam  Ava 2020 wwe  scam 1992 proper Lovecraft Country S01E10 Alone 2020 Hubie Halloween 2020 Helstrom s01e05 etmovies The War with Grandpa 2020 
Warning! Use a VPN When Downloading Torrents!
Your IP Address is 3.234.254.115. Location United States
Your Internet Provider can see when you download torrents! Hide your IP Address with a VPN
ETTV warns: You should use VPN to hide your torrenting. HIDE ME NOW
ETTV Recommended TV Shows
The.Good.Lord.Bird.S01E03.WEBRip.x264-ION10 torrent
Whose.Line.Is.It.Anyway.US.S16E18.WEB.h264-BAE torrent
DuckTales.2017.S03E12.Lets.Get.Dangerous.HULU.WEB-DL.AAC2.0.H.264-LAZY torrent
We.Are.Who.We.Are.S01E06.WEBRip.x264-ION10 torrent
The.Third.Day.S01E06.WEBRip.x264-ION10 torrent
Penn.And.Teller.Fool.Us.S07E12.WEB.h264-BAE torrent

ETTV Recommended SD
My Salinger Year.2020.WEBSCR.XviD-EVO torrent
Expulsion.2020.HDRip.XviD.AC3-EVO torrent
Skydog.2020.HDRip.XviD.AC3-EVO torrent
Tar.2020.HDRip.XviD.AC3-EVO torrent

ETTV Recommended HD
The Chronicles Of Narnia Trilogy - Family Fantasy 2005-2010 Eng Subs 1080p [H264-mp4] torrent
Asterix at The Olympic Games 2008 BluRay 1080p DTS AC3 x264-3Li torrent
Rush Hour 3 2007 BluRay 1080p DTS AC3 x264-3Li torrent
3022 (2019) ITA-AC3 WEBDL 1080p H264 - L@Z59 - iDN CreW.mkv torrent

ETTV Recommended UHD
Back.to.the.Future.1985.MULTi.2160p.Bluray.HDR.Atmos.7.1.HEVC-DDR.mkv torrent
Back.to.the.Future.Part.II.1989.MULTi.2160p.Bluray.HDR.Atmos.7.1.HEVC-DDR.mkv torrent
The.Boys.in.the.Band.2020.4K.MULTI.2160p.HDR.WEB.DDP.5.1.HEVC-DDR.mkv torrent
The.Binding.2020.4K.MULTI.2160p.SDR.WEB.DDP.5.1.HEVC-DDR.mkv torrent
Secret.Society.of.Second.Born.Royals.2020.MULTI.2160p.HDR.WEB.EAC3.5.1.HEVC-DDR.mkv torrent
Back.to.the.Future.Part.III.1990.MULTi.2160p.Bluray.HDR.HEVC.Atmos.7.1.HEVC-DDR.mkv torrent

ETTV Recommended Cam
The.Broken.Hearts.Gallery.2020.HDCAM.x264.LLG torrent
The Secrets We Keep 2020 HDCAM-C1NEM4 torrent

ETTV Recommended Foreign
The Man Who Was Thursday (2016) UNCUT 720p WEBRip x264 Eng Subs [Dual Audio] [Hindi DD 2.0 - English 2.0] Exclusive By -=!Dr.STAR!=- torrent
Deadly Exchange (2017) 720p WEB-DL x264 Eng Subs [Dual Audio] [Hindi DD 2.0 - English 2.0] Exclusive By -=!Dr.STAR!=- torrent
Psycho 1960 Uncut 60th Anniv. x264 720p Esub BluRay Dual Audio English Hindi GOPI SAHI torrent
Anna Karenina 2012 x264 720p Esub BluRay Dual Audio English Hindi GOPI SAHI torrent
The Green Mile 1999 x264 720p Esub BluRay Dual Audio English Hindi GOPI SAHI torrent
First Reformed 2018 x264 720p Esub NetFLix Dual Audio Hindi English GOPI SAHI torrent

ETTV Recommended Misc
Gucci Mane - So Icy Gang, Vol. 1 (2020) Mp3 320kbps [PMEDIA] ⭐️ torrent
[folk-rock, prog-rock] (2018) Tamburlaine - Say No More (1972, Reissue) [FLAC] [DarkAngie] torrent
Eagles - Hotel California YERAYCITO MASTER SERIES SE torrent
Lazarus - Down N' Dirty (2020) (320) [DJ] torrent
VA - Christmas Rock 2020 (Mp3 320kbps) [PMEDIA] ⭐️ torrent
Michael Jackson - Bad + Dangerous (24bit-96kHz) [FLAC] vtwin88cube torrent


Download Torrent "Star Trek Discovery S03E01 That Hope Is You Part 1 1080p AMZN WEBrip x265 ..."

IMDB Details
Description:

Ten years before Kirk, Spock, and the Enterprise, the USS Discovery discovers new worlds and lifeforms as one Starfleet officer learns to understand all things alien.

Genre:

Action, Adventure, Drama

Download Torrent (Magnet)
Download Torrent (File)

Seeds: 482
Leechers: 93

Uploaded by:
D0ct0rLew


Category:
TV > HEVC/x265 (Super High Quality, Small size, high CPU usage)


Details
Title:Star Trek Discovery S03E01 That Hope Is You Part 1 1080p AMZN WEBrip x265 ...
Description:





Media Information

Unique ID                                : 223553467872710804550286397096918910659 (0xA82ED4F0807684158FC4286CBFE606C3)
Complete name                            : Star Trek Discovery S03E01 That Hope Is You Part 1  1080p AMZN WEBrip x265 DDP5.1 D0ct0rLew[SEV].mkv
Format                                   : Matroska
Format version                           : Version 4 / Version 2
File size                                : 1.45 GiB
Duration                                 : 52 min 47 s
Overall bit rate                         : 3 942 kb/s
Movie name                               : Star Trek Discovery S03E01 That Hope Is You Part 1  1080p AMZN WEBrip x265 DDP5.1 D0ct0rLew[SEV]
Encoded date                             : UTC 2020-10-16 02:29:20
Writing application                      : mkvmerge v17.0.0 ('Be Ur Friend') 64-bit
Writing library                          : libebml v1.3.5 + libmatroska v1.4.8
Attachments                              : StintUltraCondensed-lL0e.ttf

Video
ID                                       : 1
Format                                   : HEVC
Format/Info                              : High Efficiency Video Coding
Format profile                           : Main [email protected]@Main
Codec ID                                 : V_MPEGH/ISO/HEVC
Duration                                 : 52 min 47 s
Bit rate                                 : 3 300 kb/s
Width                                    : 1 920 pixels
Height                                   : 1 080 pixels
Display aspect ratio                     : 16:9
Frame rate mode                          : Constant
Frame rate                               : 24.000 FPS
Color space                              : YUV
Chroma subsampling                       : 4:2:0
Bit depth                                : 10 bits
Bits/(Pixel*Frame)                       : 0.066
Stream size                              : 1.22 GiB (84%)
Writing library                          : x265 3.4+6-g73f96ff39:[Windows][GCC 11.0.0][64 bit] 10bit
Encoding settings                        : cpuid=1049583 / frame-threads=3 / numa-pools=8 / wpp / no-pmode / no-pme / no-psnr / no-ssim / log-level=2 / input-csp=1 / input-res=1920x1080 / interlace=0 / total-frames=1440 / level-idc=0 / high-tier=1 / uhd-bd=0 / ref=4 / no-allow-non-conformance / no-repeat-headers / annexb / no-aud / no-hrd / info / hash=0 / no-temporal-layers / open-gop / min-keyint=24 / keyint=240 / gop-lookahead=0 / bframes=16 / b-adapt=2 / b-pyramid / bframe-bias=0 / rc-lookahead=90 / lookahead-slices=4 / scenecut=40 / hist-scenecut=0 / radl=0 / no-splice / no-intra-refresh / ctu=64 / min-cu-size=8 / no-rect / no-amp / max-tu-size=32 / tu-inter-depth=4 / tu-intra-depth=4 / limit-tu=0 / rdoq-level=2 / dynamic-rd=0.00 / no-ssim-rd / signhide / no-tskip / nr-intra=0 / nr-inter=0 / no-constrained-intra / no-strong-intra-smoothing / max-merge=5 / limit-refs=0 / limit-modes / me=3 / subme=7 / merange=92 / temporal-mvp / no-frame-dup / no-hme / weightp / no-weightb / no-analyze-src-pics / deblock=0:0 / sao / no-sao-non-deblock / rd=4 / selective-sao=4 / no-early-skip / rskip / no-fast-intra / no-tskip-fast / no-cu-lossless / no-b-intra / no-splitrd-skip / rdpenalty=0 / psy-rd=1.30 / psy-rdoq=1.00 / no-rd-refine / no-lossless / cbqpoffs=0 / crqpoffs=0 / rc=crf / crf=18.5 / qcomp=0.60 / qpstep=4 / stats-write=0 / stats-read=0 / ipratio=1.40 / pbratio=1.30 / aq-mode=4 / aq-strength=1.00 / cutree / zone-count=0 / no-strict-cbr / qg-size=32 / no-rc-grain / qpmax=69 / qpmin=0 / no-const-vbv / sar=1 / overscan=0 / videoformat=5 / range=0 / colorprim=2 / transfer=2 / colormatrix=2 / chromaloc=0 / display-window=0 / cll=0,0 / min-luma=0 / max-luma=1023 / log2-max-poc-lsb=8 / vui-timing-info / vui-hrd-info / slices=1 / no-opt-qp-pps / no-opt-ref-list-length-pps / no-multi-pass-opt-rps / scenecut-bias=0.05 / hist-threshold=0.01 / no-opt-cu-delta-qp / no-aq-motion / no-hdr10 / no-hdr10-opt / no-dhdr10-opt / no-idr-recovery-sei / analysis-reuse-level=0 / analysis-save-reuse-level=0 / analysis-load-reuse-level=0 / scale-factor=0 / refine-intra=0 / refine-inter=0 / refine-mv=1 / refine-ctu-distortion=0 / no-limit-sao / ctu-info=0 / no-lowpass-dct / refine-analysis-type=0 / copy-pic=1 / max-ausize-factor=1.0 / no-dynamic-refine / no-single-sei / no-hevc-aq / no-svt / no-field / qp-adaptation-range=1.00 / no-scenecut-aware-qpconformance-window-offsets / right=0 / bottom=0 / decoder-max-rate=0
Default                                  : Yes
Forced                                   : No

Audio
ID                                       : 2
Format                                   : E-AC-3
Format/Info                              : Enhanced Audio Coding 3
Format settings, Endianness              : Big
Codec ID                                 : A_EAC3
Duration                                 : 52 min 47 s
Bit rate mode                            : Constant
Bit rate                                 : 640 kb/s
Channel(s)                               : 6 channels
Channel positions                        : Front: L C R, Side: L R, LFE
Sampling rate                            : 48.0 kHz
Frame rate                               : 187.500 FPS (256 spf)
Compression mode                         : Lossy
Stream size                              : 242 MiB (16%)
Language                                 : English
Service kind                             : Complete Main
Default                                  : Yes
Forced                                   : No

Text
ID                                       : 3
Format                                   : ASS
Codec ID                                 : S_TEXT/ASS
Codec ID/Info                            : Advanced Sub Station Alpha
Duration                                 : 52 min 29 s
Bit rate                                 : 92 b/s
Count of elements                        : 713
Compression mode                         : Lossless
Stream size                              : 35.7 KiB (0%)
Language                                 : English
Default                                  : Yes
Forced                                   : No

We have no issue with individuals posting or re-uploading our torrents on a platform we aren't on. However, if this is something you'd like to do, please do so in a 'as-is' format. We ask that you do not create a new torrent, include all descriptions you see above including the SEV logo, tags, notes and screenshots.
If you'd like to become a permanent poster on a website we don't post to, feel free to get in contact with a Sublime Encoded Video member.

We are recruiting/training new members for SEV & seedbox providers as well as people to help out with subtitles.
As you already know, we deliver quality, so you know the standard.
If you're interested, feel free to contact any of the team members.

Category:TV > HEVC/x265
Lang:English  English
Total Size:1.45 GB
Info Hash:428ca99dd531f911ec15fb9674e3ec52f1d9300c
Added By:D0ct0rLew
Date Added:16-10-2020 05:52:52

  

Files

File List: 
 File Size
Contact SEV.txt1.03 kB
Star Trek Discovery S03E01 That Hope Is You Part 1 1080p AMZN WEBrip x265 DDP5.1 D0ct0rLew[SEV].mkv1.45 GB



Comments

There are currently no comments. Be the first one to write something !