The Mandalorian S02E01 hindi The Mandalorian S01E01 xxx malayalam Long Way Up S01E09 Hocus Pocus 1993 etrg Real Time with Bill Maher S18E32 The Trial of the Chicago 7 2020 ita mirzapur ettv The Mandalorian Borat Subsequent Moviefilm 2020 yts ddr Warrior S02E05 On the Rocks 2020 Come Play 2020 warrior gold rush evo Gold Rush s11e02 star trek discovery s03e02 The Witches 2020 rq.mp4 tenet Holidate 2020 ethd Hubie Halloween 2020 mandalorian Supernatural S15E17 The Mandalorian S02E02 taish etmovies Tenet 2020 The Nightmare Before Christmas 1993 The boys Truth Seekers s01e02 star trek discovery s03e03 The Undoing S01E01 The Empty Man 2020 This IS Us Superstore S06E01 Love and Monsters 2020 Greenland 2020 Mulan 2020 wwe Over the Moon 2020 This Is Us S05E01 scam 1992 mirzapur 2 f1 Star Trek Discovery The Walking Dead Rebecca 2020 Mandalorian s02e01 Spell 2020 Honest Thief 2020 Roald Dahls The Witches 2020 star trek Truth Seekers s01e01 The New Mutants 2020 0 Truth seekers supernatural Unhinged 2020 Hindi 2020 The Craft None The Outpost S03E04 EVO neXt  
Warning! Use a VPN When Downloading Torrents!
Your IP Address is 100.24.125.162. Location United States
Your Internet Provider can see when you download torrents! Hide your IP Address with a VPN
ETTV warns: You should use VPN to hide your torrenting. HIDE ME NOW
ETTV Recommended TV Shows
The.Mandalorian.S02E01.WEBRip.x264-ION10 torrent
American.Ninja.Warrior.S12E07.WEB.h264-BAE torrent
American.Housewife.S05E01.WEB.h264-BAE torrent
Top.Secret.Videos.S01E01.WEBRip.x264-BAE torrent
Gold.Rush.S11E02.Promised.Land.HDTV.x264-CRiMSON torrent
Warrior.S02E05.WEBRip.x264-ION10 torrent

ETTV Recommended SD
Relic.2020.BDRip.XviD.AC3-EVO torrent
The.Misadventures.of.Mistress.Maneater.2020.HDRip.XviD.AC3-EVO torrent
Stage.Mother.2020.BRRip.XviD.AC3-EVO torrent
Sleepaway.Slasher.2020.HDRip.XviD.AC3-EVO torrent

ETTV Recommended HD
Once.Upon.a.Snowman.2020.DSNYP.1080p.WEBRip.X264.Atmos-EVO torrent
Rogue City (2020) [Lannick Gautry][NF] 1080p H264 DolbyD 5.1 ūüíé nickarad torrent
Captain America The Winter Soldier 2014 BluRay 1080p DTS AC3 x264-3Li torrent
Bronx (2020) ITA AC3 5.1 WEBRip 1080p H264 - L@Z59 - iDN CreW.mkv torrent

ETTV Recommended UHD
Back.to.the.Future.1985.MULTi.2160p.Bluray.HDR.Atmos.7.1.HEVC-DDR.mkv torrent
Back.to.the.Future.Part.II.1989.MULTi.2160p.Bluray.HDR.Atmos.7.1.HEVC-DDR.mkv torrent
The.Boys.in.the.Band.2020.4K.MULTI.2160p.HDR.WEB.DDP.5.1.HEVC-DDR.mkv torrent
The.Binding.2020.4K.MULTI.2160p.SDR.WEB.DDP.5.1.HEVC-DDR.mkv torrent
Secret.Society.of.Second.Born.Royals.2020.MULTI.2160p.HDR.WEB.EAC3.5.1.HEVC-DDR.mkv torrent
Back.to.the.Future.Part.III.1990.MULTi.2160p.Bluray.HDR.HEVC.Atmos.7.1.HEVC-DDR.mkv torrent

ETTV Recommended Cam
The.Broken.Hearts.Gallery.2020.HDCAM.x264.LLG torrent
The Secrets We Keep 2020 HDCAM-C1NEM4 torrent

ETTV Recommended Foreign
Most Likely to Die (2015) UNRATED 720p WEBRip x264 Eng Subs [Dual Audio] [Hindi DD 2.0 - English 5.1] Exclusive By -=!Dr.STAR!=- torrent
Kiss Me Deadly (2008) UNCUT 720p BluRay x264 Eng Subs [Dual Audio] [Hindi DD 2.0 - English 2.0] Exclusive By -=!Dr.STAR!=- torrent
Behemoth (2011) 720p BluRay x264 Eng Subs [Dual Audio] [Hindi DD 2.0 - English 5.1] Exclusive By -=!Dr.STAR!=- torrent
The Haunting Hour : Don't Think About It (2007) 720p WEBRip x264 Eng Subs [Dual Audio] [Hindi DD 2.0 - English 2.0] Exclusive By -=!Dr.STAR!=- torrent
Hui Buh : The Castle Ghost (2006) 720p BluRay x264 Eng Subs [Dual Audio] [Hindi DD 2.0 - German 5.1] Exclusive By -=!Dr.STAR!=- torrent
Genevieve 1953 x264 720p BluRay Dual Audio English Hindi GOPI SAHI torrent

ETTV Recommended Misc
Tori Kelly - A Tori Kelly Christmas (2020) Mp3 320kbps [PMEDIA] ‚≠źÔłŹ torrent
Paul Simon - Graceland YERAYCITO MASTER SERIES SE torrent
Earth, Wind & Fire - Gold [3CD] (2020) Mp3 320kbps [PMEDIA] ‚≠źÔłŹ torrent
Def Leppard - Pyromania (1983) (PBTHAL Vinyl 24-96) [FLAC] vtwin88cube torrent
The Cars - The Cars (1978) (PBTHAL Vinyl 24-96) [FLAC] vtwin88cube torrent
Rage Against The Machine - The Collection (5CD) (1992-2003) (2010) (320) [DJ] torrent


Download Torrent "Hard Target 1993 x264 720p Esub BluRay Dual Audio English Hindi GOPI SAHI"

IMDB Details
Description:

A woman hires a drifter as her guide through New Orleans in search of her father, who has gone missing. They discover a deadly game of cat and mouse behind his disappearance in the process.

Genre:

Action, Adventure, Drama, Thriller

Download Torrent (Magnet)
Download Torrent (File)

Seeds: 131
Leechers: 44

Uploaded by:
GOPISAHI


Category:
Movies > Dubs/Dual Audio


Details
Title:Hard Target 1993 x264 720p Esub BluRay Dual Audio English Hindi GOPI SAHI
Description:

https://www.jattrules.com/



Hard Target 1993 x264 720p Esub BluRay Dual Audio English Hindi GOPI SAHI


Format                         : Matroska
Format version                 : Version 4
File size                      : 790 MiB
Duration                       : 1 h 39 min
Overall bit rate               : 1 109 kb/s
Movie name                     : Hard Target 1993 GOPI SAHI
Encoded date                   : UTC 2020-10-16 23:53:57

Video
ID                             : 1
Format                         : AVC
Format/Info                    : Advanced Video Codec
Format profile¬†¬†¬†¬†¬†¬†¬†¬†¬†¬†¬†¬†¬†¬†¬†¬† : [email protected]
Format settings                : CABAC / 5 Ref Frames
Format settings, CABAC         : Yes
Format settings, Reference fra : 5 frames
Codec ID                       : V_MPEG4/ISO/AVC
Duration                       : 1 h 39 min
Bit rate                       : 899 kb/s
Width                          : 1 280 pixels
Height                         : 694 pixels
Display aspect ratio           : 1.85:1
Frame rate mode                : Constant
Frame rate                     : 23.976 (24000/1001) FPS
Color space                    : YUV
Chroma subsampling             : 4:2:0
Bit depth                      : 8 bits
Scan type                      : Progressive
Bits/(Pixel*Frame)             : 0.042
Stream size                    : 640 MiB (81%)
Title                          : GOPI SAHI
Writing library                : x264 core 157 r2935 545de2f


Audio #1
ID                             : 2
Format                         : AAC LC
Format/Info                    : Advanced Audio Codec Low Complexity
Codec ID                       : A_AAC-2
Duration                       : 1 h 39 min
Bit rate                       : 96.0 kb/s
Channel(s)                     : 2 channels
Channel layout                 : L R
Sampling rate                  : 48.0 kHz
Frame rate                     : 46.875 FPS (1024 SPF)
Compression mode               : Lossy
Delay relative to video        : 25 ms
Stream size                    : 68.7 MiB (9%)
Title                          : GOPI SAHI
Language                       : Hindi
Default                        : Yes
Forced                         : No

Audio #2
ID                             : 3
Format                         : AAC LC
Format/Info                    : Advanced Audio Codec Low Complexity
Codec ID                       : A_AAC-2
Duration                       : 1 h 39 min
Bit rate                       : 96.0 kb/s
Channel(s)                     : 2 channels
Channel layout                 : L R
Sampling rate                  : 48.0 kHz
Frame rate                     : 46.875 FPS (1024 SPF)
Compression mode               : Lossy
Delay relative to video        : -21 ms
Stream size                    : 68.7 MiB (9%)
Title                          : GOPI SAHI
Language                       : English
Default                        : No
Forced                         : No

Text #1
ID                             : 4
Format                         : PGS
Muxing mode                    : zlib
Codec ID                       : S_HDMV/PGS
Codec ID/Info                  : Picture based subtitle format used on BDs/HD-DVDs
Duration                       : 1 h 38 min
Bit rate                       : 13.4 kb/s
Count of elements              : 1218
Stream size                    : 9.45 MiB (1%)
Title                          : GOPI SAHI
Language                       : Hindi
Default                        : Yes
Forced                         : Yes

Text #2
ID                             : 5
Format                         : PGS
Muxing mode                    : zlib
Codec ID                       : S_HDMV/PGS
Codec ID/Info                  : Picture based subtitle format used on BDs/HD-DVDs
Duration                       : 1 h 34 min
Bit rate                       : 23.7 kb/s
Count of elements              : 1640
Stream size                    : 16.0 MiB (2%)
Title                          : GOPI SAHI
Language                       : English
Default                        : No
Forced                         : No

Menu
00:00:00.000                   : :Chapter 1
00:08:22.502                   : :Chapter 2
00:16:06.924                   : :Chapter 3
00:26:03.645                   : :Chapter 4
00:40:07.822                   : :Chapter 5
00:42:53.237                   : :Chapter 6
00:53:40.592                   : :Chapter 7
01:05:01.481                   : :Chapter 8
01:08:57.925                   : :Chapter 9
01:12:25.216                   : :Chapter 10
01:14:30.383                   : :Chapter 11
01:18:05.973                   : :Chapter 12
01:24:45.747                   : :Chapter 13
01:27:23.947                   : :Chapter 14
01:32:15.155                   : :Chapter 15
01:34:28.621                   : :Chapter 16







Category:Movies > Dubs/Dual Audio
Lang:Hindi  Hindi
Total Size:790 MB
Info Hash:8e9774e541557adf8a1cefc3fb0f250ab34fa6aa
Added By:GOPISAHI
Date Added:17-10-2020 09:19:20

  

Files

File List: 
 File Size
Hard Target 1993 x264 720p Esub BluRay Dual Audio English Hindi GOPI SAHI.mkv790 MB



Comments

There are currently no comments. Be the first one to write something !