The Walking Dead World Beyond S01E03 Mirzapur Greenland 2020 hindi The Trial of the Chicago 7 2020 love and monsters  Married at First Sight S11E15 Archer s11e07 2067 2020 The Conners S03E01 scam 1992 Star Trek Discovery S03E02 neXt S01E03 hindi 2020 Helstrom S01E05 mirzapur 2 The Goldbergs S08E01 star trek discovery supernatural The Walking Dead S10E16 The Real Housewives of Orange County S15E02 After We Collided 2020 2160p The Doorman 2020 The New Mutants 2020 rq.mp4 the witches The Wolf of Snow Hollow 2020 Big Brother S22E33 Borat  etrg Star Trek Discovery S03E01 Fear the Walking Dead S06E02 Borat Subsequent Moviefilm 2020 the boys Helstrom S01E01 The Amazing Race S32E02 AEW The Goldbergs s08e02 0 Love and Monsters 2020 Honest Thief 2020 ettv trickster Malayalam  etmovies ddr Unhinged  wwe  tgx Hubie Halloween 2020 tenet the walking dead yts xxx  warrior The Witches 2020 Mulan 2020 fargo Next Helstrom S01E03 marvel week Tenet 2020 ARCHER Fargo S04E05 Lovecraft Country S01E10 Helstrom S01E02 star trek fear the walking dead The Bachelorette S16E02 Unhinged 2020 evo ethd 
Warning! Use a VPN When Downloading Torrents!
Your IP Address is 35.172.236.135. Location United States
Your Internet Provider can see when you download torrents! Hide your IP Address with a VPN
ETTV warns: You should use VPN to hide your torrenting. HIDE ME NOW
ETTV Recommended TV Shows
The.Third.Day.S01E06.WEBRip.x264-ION10 torrent
Space.Disasters.S01E01.First.Generation.WEB.h264-CAFFEiNE torrent
Life.Below.Zero.S14E08.Blood.Lines.WEB.h264-CAFFEiNE torrent
The.Real.Housewives.of.Orange.County.S15E02.Tequila.Truth.Serum.HDTV.x264-CRiMSON torrent
Trickster.2020.S01E03.WEBRip.x264-BAE torrent
Life.Below.Zero.Next.Generation.S01E08.Trail.Breakers.WEB.h264-CAFFEiNE torrent

ETTV Recommended SD
The.Witches.2020.HDRip.XviD.AC3-EVO torrent
Forever.First.Love.2020.HDRip.XviD.AC3-EVO torrent
Rebecca.2020.HDRip.XviD.AC3-EVO torrent
Blue.Ridge.2020.HDRip.XViD.AC3-EVO torrent

ETTV Recommended HD
Rush Hour 3 2007 BluRay 1080p DTS AC3 x264-3Li torrent
3022 (2019) ITA-AC3 WEBDL 1080p H264 - L@Z59 - iDN CreW.mkv torrent
The.Witches.2020.1080p.WEB-DL.H264.AC3-EVO torrent
Rush Hour 2 2001 BluRay 1080p DTS AC3 x264-3Li torrent

ETTV Recommended UHD
Back.to.the.Future.1985.MULTi.2160p.Bluray.HDR.Atmos.7.1.HEVC-DDR.mkv torrent
Back.to.the.Future.Part.II.1989.MULTi.2160p.Bluray.HDR.Atmos.7.1.HEVC-DDR.mkv torrent
The.Boys.in.the.Band.2020.4K.MULTI.2160p.HDR.WEB.DDP.5.1.HEVC-DDR.mkv torrent
The.Binding.2020.4K.MULTI.2160p.SDR.WEB.DDP.5.1.HEVC-DDR.mkv torrent
Secret.Society.of.Second.Born.Royals.2020.MULTI.2160p.HDR.WEB.EAC3.5.1.HEVC-DDR.mkv torrent
Back.to.the.Future.Part.III.1990.MULTi.2160p.Bluray.HDR.HEVC.Atmos.7.1.HEVC-DDR.mkv torrent

ETTV Recommended Cam
The.Broken.Hearts.Gallery.2020.HDCAM.x264.LLG torrent
The Secrets We Keep 2020 HDCAM-C1NEM4 torrent

ETTV Recommended Foreign
The Man Who Was Thursday (2016) UNCUT 720p WEBRip x264 Eng Subs [Dual Audio] [Hindi DD 2.0 - English 2.0] Exclusive By -=!Dr.STAR!=- torrent
Deadly Exchange (2017) 720p WEB-DL x264 Eng Subs [Dual Audio] [Hindi DD 2.0 - English 2.0] Exclusive By -=!Dr.STAR!=- torrent
Anna Karenina 2012 x264 720p Esub BluRay Dual Audio English Hindi GOPI SAHI torrent
Exodus Gods and Kings 2014 x264 720p Esub BluRay Dual Audio English Hindi GOPI SAHI torrent
The Adventures of Rocky Bullwinkle 2000 x264 720p Esub BluRay Dual Audio English Hindi GOPI SAHI torrent
In Her Line of Fire (2006) 720p WEB-DL x264 Eng Subs [Dual Audio] [Hindi DD 2.0 - English 2.0] Exclusive By -=!Dr.STAR!=- torrent

ETTV Recommended Misc
Gucci Mane - So Icy Gang, Vol. 1 (2020) Mp3 320kbps [PMEDIA] ⭐️ torrent
[folk-rock, prog-rock] (2018) Tamburlaine - Say No More (1972, Reissue) [FLAC] [DarkAngie] torrent
Lazarus - Down N' Dirty (2020) (320) [DJ] torrent
VA - Christmas Rock 2020 (Mp3 320kbps) [PMEDIA] ⭐️ torrent
Motley Crue - Dr. Feelgood (1989) (Vinyl 24bit-96kHz) [FLAC] vtwin88cube torrent
The Who - Quadrophenia (1973) (Vinyl 24bit-96kHz) [FLAC] vtwin88cube torrent


Download Torrent "Love.and.Monsters.2020.HDRip.XviD.B4ND1T69"

IMDB Details
Description:

In a monster-infested world, Joel (Dylan O'Brien) learns his girlfriend is just 80 miles away. To make the dangerous journey, Joel discovers his inner hero to be with the girl of his dreams.

Genre:

Adventure, Comedy

Download Torrent (Magnet)
Download Torrent (File)

Seeds: 303
Leechers: 251

Uploaded by:
B4ND1T69


Category:
Movies > XviD


Details
Title:Love.and.Monsters.2020.HDRip.XviD.B4ND1T69
Description:
Love.and.Monsters.2020.HDRip.XviD.B4ND1T69



Director: Michael Matthews
Writers: Brian Duffield (screenplay by), Matthew Robinson (screenplay by)
Stars: Dylan O'Brien, Jessica Henwick, Michael Rooker

Plot/Story:
In a monster-infested world, Joel (Dylan O'Brien) learns his girlfriend is just 80 miles away. To make the dangerous journey, Joel discovers his inner hero to be with the girl of his dreams.

General
Complete name               : Love.and.Monsters.2020.HDRip.XviD.B4ND1T69.avi
Format                      : AVI
Format/Info                 : Audio Video Interleave
File size                   : 1.32 GiB
Duration                    : 1 h 48 min
Overall bit rate            : 1 741 kb/s
Subtitles                   : Yes...Included(HI)

Video
ID                          : 0
Format                      : MPEG-4 Visual
Format profile              : Advanced [email protected]
Format settings, BVOP       : 2
Format settings, QPel       : No
Format settings, GMC        : No warppoints
Format settings, Matrix     : Default (H.263)
Codec ID                    : XVID
Codec ID/Hint               : XviD
Duration                    : 1 h 48 min
Bit rate                    : 1 600 kb/s
Width                       : 720 pixels
Height                      : 304 pixels
Display aspect ratio        : 2.35:1
Frame rate                  : 23.976 (24000/1001) FPS
Color space                 : YUV
Chroma subsampling          : 4:2:0
Bit depth                   : 8 bits
Scan type                   : Progressive
Compression mode            : Lossy
Bits/(Pixel*Frame)          : 0.305
Stream size                 : 1.22 GiB (92%)
Writing library             : XviD 64

Audio
ID                          : 1
Format                      : MPEG Audio
Format version              : Version 1
Format profile              : Layer 3
Codec ID                    : 55
Codec ID/Hint               : MP3
Duration                    : 1 h 48 min
Bit rate mode               : Constant
Bit rate                    : 128 kb/s
Channel(s)                  : 2 channels
Sampling rate               : 48.0 kHz
Compression mode            : Lossy
Stream size                 : 99.7 MiB (7%)
Alignment                   : Aligned on interleaves
Interleave, duration        : 24  ms (0.58 video frame)

Screenshots:










Please Seed For As Long As Possible
Or At Least 1:1 Ratio...Thanks
Enjoy Peeps

Category:Movies > XviD
Lang:English  English
Total Size:1.32 GB
Info Hash:f421bd7b843f93902e7da87acda922e9d1edf77d
Added By:B4ND1T69
Date Added:17-10-2020 19:27:02

Files

File List: 
 File Size
Downloaded from 1337x.txt61.00 B
Downloaded from ETTV.txt55.00 B
Downloaded from newkatcr.co.txt139.00 B
Downloaded from ProStyleX.txt54.00 B
Love.and.Monsters.2020.HDRip.XviD.B4ND1T69.avi1.32 GB
Love.and.Monsters.2020.HDRip.XviD.B4ND1T69.srt124.67 kB



Comments

There are currently no comments. Be the first one to write something !