Unhinged 2020 The War with Grandpa 2020 2160p Honest Thief 2020 Fargo s04e05 hindi 2020 Below Deck Mediterranean S05E21 Enola Holmes 2020 Helstrom S01E03 family guy s19e04 mirzapur scam 1992 Star Trek Discovery the walking dead hindi The Walking Dead World Beyond S01E02 the boys The Good Lord Bird S01E03 The Walking Dead World Beyond S01E03 The Wolf of Snow Hollow 2020 yts Hubie Halloween 2020 evo The Trial of the Chicago 7 2020 proper Alone 2020 Tenet 2020 Warrior S02E03 fargo rq.mp4 The Simpsons s32e04 Pandora S02E03 Love And Monsters  Mulan 2020 Last Week Tonight with John Oliver S07E26 Helstrom S01E01 ethd Lovecraft Country S01E10 neXt s01e02 Malayalam  etrg Tenet 2067 2020 After We Collided 2020 Big Brother S22E32 Supernatural ettv unhinged ddr Star Trek Discovery s03e01 Helstrom S01E05 Greenland 2020 Last Week Tonight Filthy Rich S01E04 next warrior Fear the Walking Dead S06E02 family guy Love and Monsters 2020 The Doorman 2020 The Third Day S01E06 Helstrom S01E04 wwe etmovies xxx Black Box 2020 Lovecraft Country Helstrom S01E02 Ava 2020 Next S01E03 the third day The New Mutants 2020 fear the walking dead 
Warning! Use a VPN When Downloading Torrents!
Your IP Address is 3.235.101.141. Location United States
Your Internet Provider can see when you download torrents! Hide your IP Address with a VPN
ETTV warns: You should use VPN to hide your torrenting. HIDE ME NOW
ETTV Recommended TV Shows
The.Good.Lord.Bird.S01E03.WEBRip.x264-ION10 torrent
Whose.Line.Is.It.Anyway.US.S16E18.WEB.h264-BAE torrent
DuckTales.2017.S03E12.Lets.Get.Dangerous.HULU.WEB-DL.AAC2.0.H.264-LAZY torrent
We.Are.Who.We.Are.S01E06.WEBRip.x264-ION10 torrent
The.Third.Day.S01E06.WEBRip.x264-ION10 torrent
Penn.And.Teller.Fool.Us.S07E12.WEB.h264-BAE torrent

ETTV Recommended SD
My Salinger Year.2020.WEBSCR.XviD-EVO torrent
Expulsion.2020.HDRip.XviD.AC3-EVO torrent
Skydog.2020.HDRip.XviD.AC3-EVO torrent
Tar.2020.HDRip.XviD.AC3-EVO torrent

ETTV Recommended HD
The Chronicles Of Narnia Trilogy - Family Fantasy 2005-2010 Eng Subs 1080p [H264-mp4] torrent
Asterix at The Olympic Games 2008 BluRay 1080p DTS AC3 x264-3Li torrent
Rush Hour 3 2007 BluRay 1080p DTS AC3 x264-3Li torrent
3022 (2019) ITA-AC3 WEBDL 1080p H264 - L@Z59 - iDN CreW.mkv torrent

ETTV Recommended UHD
Back.to.the.Future.1985.MULTi.2160p.Bluray.HDR.Atmos.7.1.HEVC-DDR.mkv torrent
Back.to.the.Future.Part.II.1989.MULTi.2160p.Bluray.HDR.Atmos.7.1.HEVC-DDR.mkv torrent
The.Boys.in.the.Band.2020.4K.MULTI.2160p.HDR.WEB.DDP.5.1.HEVC-DDR.mkv torrent
The.Binding.2020.4K.MULTI.2160p.SDR.WEB.DDP.5.1.HEVC-DDR.mkv torrent
Secret.Society.of.Second.Born.Royals.2020.MULTI.2160p.HDR.WEB.EAC3.5.1.HEVC-DDR.mkv torrent
Back.to.the.Future.Part.III.1990.MULTi.2160p.Bluray.HDR.HEVC.Atmos.7.1.HEVC-DDR.mkv torrent

ETTV Recommended Cam
The.Broken.Hearts.Gallery.2020.HDCAM.x264.LLG torrent
The Secrets We Keep 2020 HDCAM-C1NEM4 torrent

ETTV Recommended Foreign
The Man Who Was Thursday (2016) UNCUT 720p WEBRip x264 Eng Subs [Dual Audio] [Hindi DD 2.0 - English 2.0] Exclusive By -=!Dr.STAR!=- torrent
Deadly Exchange (2017) 720p WEB-DL x264 Eng Subs [Dual Audio] [Hindi DD 2.0 - English 2.0] Exclusive By -=!Dr.STAR!=- torrent
Psycho 1960 Uncut 60th Anniv. x264 720p Esub BluRay Dual Audio English Hindi GOPI SAHI torrent
Anna Karenina 2012 x264 720p Esub BluRay Dual Audio English Hindi GOPI SAHI torrent
The Green Mile 1999 x264 720p Esub BluRay Dual Audio English Hindi GOPI SAHI torrent
First Reformed 2018 x264 720p Esub NetFLix Dual Audio Hindi English GOPI SAHI torrent

ETTV Recommended Misc
Gucci Mane - So Icy Gang, Vol. 1 (2020) Mp3 320kbps [PMEDIA] ⭐️ torrent
[folk-rock, prog-rock] (2018) Tamburlaine - Say No More (1972, Reissue) [FLAC] [DarkAngie] torrent
Eagles - Hotel California YERAYCITO MASTER SERIES SE torrent
Lazarus - Down N' Dirty (2020) (320) [DJ] torrent
VA - Christmas Rock 2020 (Mp3 320kbps) [PMEDIA] ⭐️ torrent
Michael Jackson - Bad + Dangerous (24bit-96kHz) [FLAC] vtwin88cube torrent


Download Torrent "BlacKkKlansman 2018 x264 720p Esub BluRay Dual Audio English Hindi GOPI SAH..."

IMDB Details
Description:

Ron Stallworth, an African American police officer from Colorado Springs, CO, successfully manages to infiltrate the local Ku Klux Klan branch with the help of a Jewish surrogate who eventually becomes its leader. Based on actual events.

Genre:

Biography, Crime, Drama

Download Torrent (Magnet)
Download Torrent (File)

Seeds: 90
Leechers: 27

Uploaded by:
GOPISAHI


Category:
Movies > Dubs/Dual Audio


Details
Title:BlacKkKlansman 2018 x264 720p Esub BluRay Dual Audio English Hindi GOPI SAH...
Description:
https://www.jattrules.com/



BlacKkKlansman 2018 x264 720p Esub BluRay Dual Audio English Hindi GOPI SAHI


Format                         : Matroska
Format version                 : Version 4
File size                      : 1.04 GiB
Duration                       : 2 h 14 min
Overall bit rate               : 1 102 kb/s
Movie name                     : BlacKkKlansman 2018 GOPI SAHI
Encoded date                   : UTC 2020-10-17 14:45:58

Video
ID                             : 1
Format                         : AVC
Format/Info                    : Advanced Video Codec
Format profile                 : [email protected]
Format settings                : CABAC / 5 Ref Frames
Format settings, CABAC         : Yes
Format settings, Reference fra : 5 frames
Codec ID                       : V_MPEG4/ISO/AVC
Duration                       : 2 h 14 min
Bit rate                       : 899 kb/s
Width                          : 1 280 pixels
Height                         : 536 pixels
Display aspect ratio           : 2.40:1
Frame rate mode                : Constant
Frame rate                     : 23.976 (24000/1001) FPS
Color space                    : YUV
Chroma subsampling             : 4:2:0
Bit depth                      : 8 bits
Scan type                      : Progressive
Bits/(Pixel*Frame)             : 0.055
Stream size                    : 867 MiB (82%)
Title                          : GOPI SAHI
Writing library                : x264 core 157 r2935 545de2f

Audio #1
ID                             : 2
Format                         : AAC LC
Format/Info                    : Advanced Audio Codec Low Complexity
Codec ID                       : A_AAC-2
Duration                       : 2 h 14 min
Bit rate                       : 96.0 kb/s
Channel(s)                     : 2 channels
Channel layout                 : L R
Sampling rate                  : 48.0 kHz
Frame rate                     : 46.875 FPS (1024 SPF)
Compression mode               : Lossy
Delay relative to video        : -64 ms
Stream size                    : 92.5 MiB (9%)
Title                          : GOPI SAHI
Language                       : Hindi
Default                        : Yes
Forced                         : No

Audio #2
ID                             : 3
Format                         : AAC LC
Format/Info                    : Advanced Audio Codec Low Complexity
Codec ID                       : A_AAC-2
Duration                       : 2 h 14 min
Bit rate                       : 96.0 kb/s
Channel(s)                     : 2 channels
Channel layout                 : L R
Sampling rate                  : 48.0 kHz
Frame rate                     : 46.875 FPS (1024 SPF)
Compression mode               : Lossy
Delay relative to video        : -64 ms
Stream size                    : 92.7 MiB (9%)
Title                          : GOPI SAHI
Language                       : English
Default                        : No
Forced                         : No

Text
ID                             : 4
Format                         : VobSub
Muxing mode                    : zlib
Codec ID                       : S_VOBSUB
Codec ID/Info                  : Picture based subtitle format used on DVDs
Duration                       : 2 h 8 min
Bit rate                       : 15.6 kb/s
Count of elements              : 2633
Stream size                    : 14.4 MiB (1%)
Title                          : GOPI SAHI
Language                       : English
Default                        : Yes
Forced                         : No






Category:Movies > Dubs/Dual Audio
Lang:Hindi  Hindi
Total Size:1.04 GB
Info Hash:99577eb06f6c3ebcc9920e88118e19ba002a450a
Added By:GOPISAHI
Date Added:18-10-2020 08:13:23

  

Files

File List: 
 File Size
BlacKkKlansman 2018 x264 720p Esub BluRay Dual Audio English Hindi GOPI SAHI.mkv1.04 GB



Comments

There are currently no comments. Be the first one to write something !