Mirzapur 2020 Hindi Over the Moon 2020 mirzapur season 2 The Doorman 2020 Greenland 2020 On the Rocks 2020 Helstrom S01E01 Honest Thief 2020 hindi 2020 ufc ddr Real Time with Bill Maher S18E31 Warrior S02E04 Love and Monsters 2020 borat Hubie Halloween 2020 formula 1 Star Trek Discovery S03E02 2067 2020 The Witches 2020 fear the walking dead NEXT mirzapur 2 Mulan 2020 f1 Mirzapur Barbarians Roald Dahls The Witches 2020 etrg etmovies Enola Holmes 2020 Borat Subsequent Moviefilm 2020 The War with Grandpa 2020 Borat Cultural Learnings of America for Make Benefit Glorious Nation of Kazakhstan 2006 The outpost fargo Ava 2020 motogp Tenet 2020 tenet The New Mutants 2020 evo the boys Unhinged 2020 the witches ETTV Alone 2020 ethd Rebecca 2020 the walking dead  The Wolf of Snow Hollow 2020 supernatural Gold Rush S11E01 scam 1992 Big Brother s22e35 star trek discovery 0 rq.mp4 XXX Ufc 254 ettv wwe supernatural s15e16 malayalam warrior Saturday Night Live S46E04 The Trial of the Chicago 7 2020 Star Trek Discovery S03E01 After We Collided 2020 Fear the Walking Dead S06E03 mirzapur S02 yts 
Warning! Use a VPN When Downloading Torrents!
Your IP Address is 34.201.9.19. Location United States
Your Internet Provider can see when you download torrents! Hide your IP Address with a VPN
ETTV warns: You should use VPN to hide your torrenting. HIDE ME NOW
ETTV Recommended TV Shows
The.Outpost.S03E03.WEB.h264-BAE torrent
The.Walking.Dead.World.Beyond.S01E04.WEBRip.x264-ION10 torrent
DC.Wings.Strange.Planes.Series.1.6of6.Strange.Shapes.x264.AC3.MVGroup.org.mkv torrent
Warrior.S02E04.WEBRip.x264-ION10 torrent
The.Daily.Show.2020.10.23.WEB.h264-BAE torrent
Gold.Rush.S11E01.The.Perfect.Storm.WEBRip.x264-CAFFEiNE torrent

ETTV Recommended SD
Turn.of.the.Cheek.2020.HDRip.XviD.AC3-EVO torrent
Three.Dramas.2020.HDRip.XviD.AC3-EVO torrent
The.Perfect.Pickup.2020.HDRip.XviD.AC3-EVO torrent
Saviors.2020.HDRip.XviD.AC3-EVO torrent

ETTV Recommended HD
Once.Upon.a.Snowman.2020.DSNYP.1080p.WEBRip.X264.Atmos-EVO torrent
Nomis (2018) Night Hunter. BluRay 1080p.H264 Ita Eng AC3 5.1 Sub Ita Eng MIRCrew torrent
Warcraft 2016 BluRay 1080p DTS AC3 x264-3Li torrent
Sleepy Hollow - Johnny Depp Horror 1999 Eng Multi-Subs 1080p [H264-mp4] torrent

ETTV Recommended UHD
Back.to.the.Future.1985.MULTi.2160p.Bluray.HDR.Atmos.7.1.HEVC-DDR.mkv torrent
Back.to.the.Future.Part.II.1989.MULTi.2160p.Bluray.HDR.Atmos.7.1.HEVC-DDR.mkv torrent
The.Boys.in.the.Band.2020.4K.MULTI.2160p.HDR.WEB.DDP.5.1.HEVC-DDR.mkv torrent
The.Binding.2020.4K.MULTI.2160p.SDR.WEB.DDP.5.1.HEVC-DDR.mkv torrent
Secret.Society.of.Second.Born.Royals.2020.MULTI.2160p.HDR.WEB.EAC3.5.1.HEVC-DDR.mkv torrent
Back.to.the.Future.Part.III.1990.MULTi.2160p.Bluray.HDR.HEVC.Atmos.7.1.HEVC-DDR.mkv torrent

ETTV Recommended Cam
The.Broken.Hearts.Gallery.2020.HDCAM.x264.LLG torrent
The Secrets We Keep 2020 HDCAM-C1NEM4 torrent

ETTV Recommended Foreign
Confession of Murder (2012) 720p BluRay x264 Eng Subs [Dual Audio] [Hindi DD 2.0 - Korean 2.0] Exclusive By -=!Dr.STAR!=- torrent
A Man and A Woman (2016) 720p BluRay x264 Eng Subs [Dual Audio] [Hindi DD 2.0 - Korean 2.0] Exclusive By -=!Dr.STAR!=- torrent
A Company Man (2012) 720p BluRay x264 Eng Subs [Dual Audio] [Hindi DD 2.0 - Korean 2.0] Exclusive By -=!Dr.STAR!=- torrent
The Face Reader (2013) 720p BluRay x264 Eng Subs [Dual Audio] [Hindi DD 2.0 - Korean 2.0] Exclusive By -=!Dr.STAR!=- torrent
Changan Swordsmen : Mystery of God's Wrath (2016) 720p WEBRip x264 [Dual Audio] [Hindi DD 2.0 - English 2.0] Exclusive By -=!Dr.STAR!=- torrent
Possessed (2009) 720p BluRay x264 Eng Subs [Dual Audio] [Hindi DD 2.0 - Korean 5.1] Exclusive By -=!Dr.STAR!=- torrent

ETTV Recommended Misc
[folk-rock, prog-rock] (2018) Tamburlaine - Say No More (1972, Reissue) [FLAC] [DarkAngie] torrent
Lazarus - Down N' Dirty (2020) (320) [DJ] torrent
NOW That\'s What I Call A Workout (2020) Mp3 320kbps [PMEDIA] ⭐️ torrent
VA - Ultimate Car Anthems (2020) Mp3 320kbps [PMEDIA] ⭐️ torrent
Motley Crue - Shout At The Devil (1983) [PBTHAL LP 24-96 FLAC] vtwin88cube torrent
Led Zeppelin - Physical Graffiti (1975) [PBTHAL LP 24-96 FLAC] vtwin88cube torrent


Download Torrent "MTV Roadies Revolution S18 Ep23 1080p WEB DL H264 AAC-Top10Torrent"

IMDB Details
Description:

N/A

Genre:

N/A

Download Torrent (Magnet)
Download Torrent (File)

Seeds: 10
Leechers: 11

Uploaded by:
Top10Torrent


Category:
TV > HD/X264/H264 (Good for larger screens)


Details
Title:MTV Roadies Revolution S18 Ep23 1080p WEB DL H264 AAC-Top10Torrent
Description:


upload pictures website


https://top10torrent.site


Complete name                            : MTV Roadies Revolution S18 Ep23 1080p WEB DL H264 AAC-Top10Torrent.mkv
Format                                   : Matroska
Format version                           : Version 4
File size                                : 742 MiB
Duration                                 : 40 min 11 s
Overall bit rate                         : 2 583 kb/s
Movie name                               : https://top10torrent.site
Encoded date                             : UTC 2020-10-18 04:15:57
Writing application                      : mkvmerge v50.0.0 ('Awakenings') 64-bit
Writing library                          : libebml v1.4.0 + libmatroska v1.6.2


Video
ID                                       : 1
Format                                   : AVC
Format/Info                              : Advanced Video Codec
Format profile                           : [email protected]
Format settings                          : CABAC / 5 Ref Frames
Format settings, CABAC                   : Yes
Format settings, Reference frames        : 5 frames
Codec ID                                 : V_MPEG4/ISO/AVC
Duration                                 : 40 min 11 s
Bit rate                                 : 2 455 kb/s
Width                                    : 1 920 pixels
Height                                   : 1 080 pixels
Display aspect ratio                     : 16:9
Frame rate mode                          : Constant
Frame rate                               : 25.000 FPS
Color space                              : YUV
Chroma subsampling                       : 4:2:0
Bit depth                                : 8 bits
Scan type                                : Progressive
Bits/(Pixel*Frame)                       : 0.047
Stream size                              : 706 MiB (95%)
Title                                    : https://top10torrent.site
Language                                 : Hindi
Default                                  : Yes
Forced                                   : No


Audio
ID                                       : 2
Format                                   : AAC LC
Format/Info                              : Advanced Audio Codec Low Complexity
Codec ID                                 : A_AAC-2
Duration                                 : 40 min 11 s
Bit rate                                 : 126 kb/s
Channel(s)                               : 2 channels
Channel layout                           : L R
Sampling rate                            : 44.1 kHz
Frame rate                               : 43.066 FPS (1024 SPF)
Compression mode                         : Lossy
Delay relative to video                  : -60 ms
Stream size                              : 36.1 MiB (5%)
Title                                    : https://top10torrent.site
Language                                 : Hindi
Default                                  : Yes
Forced                                   : No




Category:TV > HD/X264/H264
Lang:Hindi  Hindi
Total Size:742 MB
Info Hash:780dfa2e76506d96e12ac8e98386c3e50cfe6fe8
Added By:Top10Torrent
Date Added:18-10-2020 12:26:47

  

Files

File List: 
 File Size
MTV Roadies Revolution S18 Ep23 1080p WEB DL H264 AAC-Top10Torrent.mkv742 MB



Comments

There are currently no comments. Be the first one to write something !