The Flight Attendant S01E04 tenet hindi 2020 fargo the mandalorian yts star trek discovery Happiest Season 2020 mandalorian 2160p Fatman 2020 The Curse of Oak Island S08E04 Greenland 2020 The Flight Attendant S01E01 the walking dead rq.mp4 Jiu Jitsu 2020 The Undoing S01E04 Star Trek Discovery S03E07 Tenet 2020 The Mandalorian S02E04 the curse of oak island Freaky 2020 star trek The Conners S03E06 SEAL Team s04e01 The Undoing S01E02 ddr xxx evo The Bachelorette S16E08 the undoing Next S01E06 The Goldbergs S08E07 The Masked Singer S04E10 Star Trek Discovery S03E08 Seal team Honest Thief 2020 wwe  SEAL Team S04E02 marvel week The Undoing S01E01 His Dark Materials Superintelligence 2020 The Undoing S01E03 Hillbilly Elegy 2020 Big Sky S01E03 etrg the flight attendant s01e02 Tamil The flight attendant i may destroy you The Croods A New Age 2020 Let Him Go 2020 next Aew For Life S02E03 The Flight Attendant S01E03 Hindi The New Mutants 2020 The Mandalorian S02E05 The Good Doctor S04E05 Run 2020 His Dark Materials S02E04 etmovies ettv ncis The Undoing S01E05 0 The Christmas Chronicles Part Two 2020 The Undoing S01E06 The Mandalorian S02E03 ethd 
Warning! Use a VPN When Downloading Torrents!
Your IP Address is 3.236.156.32. Location United States
Your Internet Provider can see when you download torrents! Hide your IP Address with a VPN
ETTV warns: You should use VPN to hide your torrenting. HIDE ME NOW
ETTV Recommended TV Shows
The.Bachelorette.S16E08.720p.WEB.h264-KOGi torrent
The.Daily.Show.2020.12.01.WEB.h264-BAE torrent
Stephen.Colbert.2020.12.01.Bryan.Cranston.720p.WEB.H264-JEBAITED torrent
The.Curse.of.Oak.Island.S08E04.720p.HDTV.x264-SYNCOPY torrent
Life.Below.Zero.S15E04.Inside.Out.WEB.h264-CAFFEiNE torrent
WWE NXT 2020 12 02 HDTV x264-Star [TJET] torrent
AEW Dynamite 2020 12 02 Winter Is Coming 720p HDTV x264-NWCHD [TJET] torrent
Star.Trek.Discovery.S03E08.WEBRip.x264-ION10 torrent

ETTV Recommended SD
Legacy.Of.Lies.2020.BDRip.XviD.AC3-EVO torrent
The.Loss.Adjuster.2020.HDRip.XviD.AC3-EVO torrent
The.Knight.and.the.Princess.2020.HDRip.XviD.AC3-EVO torrent
The.Taverna.2020.HDRip.XviD.AC3-EVO torrent

ETTV Recommended HD
Red Planet - Sci-Fi 2000 Eng Ita Rus Multi-Subs 720p [H264-mp4] torrent
Count Three and Pray  (Western 1955)  Van Heflin  720p  BrRip torrent
Avengement (2019) [Scott Adkins] 1080p H264 DolbyD 5.1 ūüíé nickarad torrent
Free.Lunch.Express.2020.HDRip.XviD.AC3-EVO torrent

ETTV Recommended UHD
The.Doorman.2020.MULTi.2160p.BluRay.SDR.DTS-HD.MA.5.1.HEVC-DDR.mkv torrent
Possessor.2020.HDR.2160p.WEB.DDP5.1.HEVC-DDR.mkv torrent
Life.in.a.Year.2020.HDR.2160p.WEB.DDP5.1.HEVC-DDR.mkv torrent
Coming.To.America.1988.MULTi.2160p.HDR.Blu-Ray.DTS-HDMA.5.1.HEVC-DDR.mkv torrent
Collateral.2004.MULTi.2160p.BluRay.HEVC.DTS-HD.MA.5.1-DDR.mkv torrent
Blade.1988.MULTi.2160p.HDR.Bluray.Atmos.7.1.HEVC-DDR.mkv torrent

ETTV Recommended Cam
The Comeback Trail 2020 720p HDCAM-C1NEM4 torrent
Let Him Go (2020) 720p HDCAM [Hindi-Sub] x264 1XBET torrent

ETTV Recommended Foreign
The Broken Hearts Gallery (2020) BluRay 1080p.H264 Ita Eng AC3 5.1 Sub Ita Eng - ODS torrent
Resident.Evil.2002.ITA.ENG.2160p.UHD.BluRay.x265.HDR-MeM.mkv torrent
Voces (2020) ITA-SPA Ac3 5.1 WebRip 1080p H264 [ArMor] torrent
Anastasia: Once Upon a Time (2020).1080p.H264.ita.Ac3-5.1.sub.ita.eng-MIRCrew torrent
Waiting for the Barbarians (2019) ITA-ENG Ac3 5.1 BDRip 1080p H264 [ArMor] torrent
Berlin Alexanderplatz 2020 German PROPER 720p BluRay HEVC x265-RMTeam  torrent

ETTV Recommended Misc
VA - Blues Heroes (All Tracks Remastered) (2020) Mp3 320kbps [PMEDIA] ‚≠źÔłŹ torrent
[indie-folk] (2020) Laura Fell - Safe from Me [FLAC] [DarkAngie] torrent
Amy Winehouse - The Collection (5 CD Boxset) (2020) Mp3 320kbps [PMEDIA] ‚≠źÔłŹ torrent
Bruce Springsteen - 2 Live Concerts (25th June 2005 + 28th April 2008) (2020) [24Bit-Hi-Res FLAC] [DJ] torrent
[indie-pop, indie-rock] (2020) Adrianne Lenker - songs and instrumentals [FLAC] [DarkAngie] torrent
[indie-rock] (2020) Juanita Stein - Snapshot [FLAC] [DarkAngie] torrent


Download Torrent "Ride Your Wave (2019) ITA-JAP Ac3 5.1 BDRip 1080p H264 [ArMor]"

IMDB Details
Description:

A surfer and firefighter meet and fall in love.

Genre:

Animation, Comedy, Drama, Family, Fantasy, Romance

Download Torrent (Magnet)
Download Torrent (File)

Seeds: 22
Leechers: 18

Uploaded by:
ArMor


Category:
Anime > Movies


Details
Title:Ride Your Wave (2019) ITA-JAP Ac3 5.1 BDRip 1080p H264 [ArMor]
Description:







Titolo originale Kimi to, nami ni noretara
Lingua originale giapponese
Paese di produzione Giappone
Anno 2019
Durata 96 min
Genere animazione, commedia, drammatico, sentimentale
Regia Masaaki Yuasa
Sceneggiatura Reiko Yoshida
Casa di produzione Science Saru
Distribuzione in italiano Prime Video
Musiche Michiru Oshima



RyŇćta Katayose: Minato Hinageshi
Rina Kawaei: Hinako Mukaimizu
Honoka Matsumoto: Y√īko Hinageshi
KentarŇć ItŇć: Wasabi Kawamura



La diciannovenne Hinako Mukaimizu si trasferisce in una città sull'oceano per frequentare il college e dedicarsi al suo hobby, il surf, senza preoccuparsi troppo del suo futuro. Quando il suo nuovo appartamento prende fuoco a causa di fuochi d'artificio fatti scoppiare illegalmente, viene soccorsa da Minato Hinageshi, un pompiere di 21 anni con un forte senso della giustizia. Hinako è attratto dalla sua personalità capace e i due legano quando Mnato inizia a prendere lezioni di surf dalla ragazza. I due trascorrono del tempo insieme e si innamorano; tuttavia, dopo che Hinako dice a Minato che le onde migliori per fare surf sono quelle presenti durante una tempesta invernale, il ragazzo va a fare surf durante una tempesta e annega nel salvare un uomo caduto in acqua.



A surfer and firefighter meet and fall in love.

 










General
Unique ID                                : 223787817620719961722348927472013999901 (0xA85BF7462BE460D5BDEE1854036CFF1D)
Complete name                            : Ride Your Wave (2019) ITA-JAP Ac3 5.1 BDRip 1080p H264 [ArMor].mkv
Format                                   : Matroska
Format version                           : Version 4
File size                                : 3.85 GiB
Duration                                 : 1 h 35 min
Overall bit rate                         : 5 752 kb/s
Encoded date                             : UTC 2020-11-03 20:16:56
Writing application                      : mkvmerge v15.0.0 ('Duel with the Devil') 64-bit
Writing library                          : libebml v1.3.5 + libmatroska v1.4.5 / Lavf58.29.100

Video
ID                                       : 1
Format                                   : AVC
Format/Info                              : Advanced Video Codec
Format profile¬† ¬† ¬† ¬† ¬† ¬† ¬† ¬† ¬† ¬† ¬† ¬† ¬† ¬†: [email protected]
Format settings                          : CABAC / 4 Ref Frames
Format settings, CABAC                   : Yes
Format settings, Reference frames        : 4 frames
Codec ID                                 : V_MPEG4/ISO/AVC
Duration                                 : 1 h 35 min
Bit rate                                 : 4 854 kb/s
Width                                    : 1 920 pixels
Height                                   : 1 080 pixels
Display aspect ratio                     : 16:9
Frame rate mode                          : Constant
Frame rate                               : 23.976 (24000/1001) FPS
Color space                              : YUV
Chroma subsampling                       : 4:2:0
Bit depth                                : 8 bits
Scan type                                : Progressive
Bits/(Pixel*Frame)                       : 0.098
Stream size                              : 3.25 GiB (84%)
Writing library                          : x264 core 157 r2935 545de2f
Encoding settings                        : cabac=1 / ref=2 / deblock=1:0:0 / analyse=0x1:0x111 / me=hex / subme=6 / psy=1 / psy_rd=1.00:0.00 / mixed_ref=1 / me_range=16 / chroma_me=1 / trellis=1 / 8x8dct=0 / cqm=0 / deadzone=21,11 / fast_pskip=1 / chroma_qp_offset=-2 / threads=18 / lookahead_threads=3 / sliced_threads=0 / nr=0 / decimate=1 / interlaced=0 / bluray_compat=0 / constrained_intra=0 / bframes=3 / b_pyramid=2 / b_adapt=1 / b_bias=0 / direct=1 / weightb=1 / open_gop=0 / weightp=1 / keyint=240 / keyint_min=24 / scenecut=40 / intra_refresh=0 / rc_lookahead=30 / rc=crf / mbtree=1 / crf=17.0 / qcomp=0.60 / qpmin=0 / qpmax=69 / qpstep=4 / vbv_maxrate=50000 / vbv_bufsize=62500 / crf_max=0.0 / nal_hrd=none / filler=0 / ip_ratio=1.40 / aq=1:1.00
Default                                  : Yes
Forced                                   : No
Color range                              : Limited
Color primaries                          : BT.709
Transfer characteristics                 : BT.709
Matrix coefficients                      : BT.709

Audio #1
ID                                       : 2
Format                                   : AC-3
Format/Info                              : Audio Coding 3
Commercial name                          : Dolby Digital
Codec ID                                 : A_AC3
Duration                                 : 1 h 35 min
Bit rate mode                            : Constant
Bit rate                                 : 448 kb/s
Channel(s)                               : 6 channels
Channel layout                           : L R C LFE Ls Rs
Sampling rate                            : 48.0 kHz
Frame rate                               : 31.250 FPS (1536 SPF)
Compression mode                         : Lossy
Stream size                              : 307 MiB (8%)
Title                                    : WEBDL EAC3
Language                                 : Italian
Service kind                             : Complete Main
Default                                  : Yes
Forced                                   : No

Audio #2
ID                                       : 3
Format                                   : AC-3
Format/Info                              : Audio Coding 3
Commercial name                          : Dolby Digital
Codec ID                                 : A_AC3
Duration                                 : 1 h 35 min
Bit rate mode                            : Constant
Bit rate                                 : 448 kb/s
Channel(s)                               : 6 channels
Channel layout                           : L R C LFE Ls Rs
Sampling rate                            : 48.0 kHz
Frame rate                               : 31.250 FPS (1536 SPF)
Compression mode                         : Lossy
Stream size                              : 307 MiB (8%)
Title                                    : DTS
Language                                 : Japanese
Service kind                             : Complete Main
Default                                  : No
Forced                                   : No




Category:Anime > Movies
Lang:Italian  Italian
Total Size:3.85 GB
Info Hash:dd5b27b0ebb6d170535789f610dbfa686b1f7861
Added By:ArMor
Date Added:03-11-2020 21:56:08

  

Files

File List: 
 File Size
Ride Your Wave (2019) ITA-JAP Ac3 5.1 BDRip 1080p H264 [ArMor].mkv3.85 GB
Ride.Your.Wave.2019.ITA-JAP.Bluray.1080p_ita.srt92.97 kB
Ride.Your.Wave.2019.ITA-JAP.Bluray.1080p_ita_forced.srt2.17 kB
tsh654i86kjtulkeytu.jpg160.11 kB



Comments

There are currently no comments. Be the first one to write something !