Big Sky S01E02 The Neighborhood s03e02 mirzapur FBI Most Wanted S02E02 NCIS s18e02 Fbi tamil scam 1992 All Rise S02E02 The Mandalorian S02E02 ethd The Good Doctor S04E04 ludo hindi 2020 Bull s05e02 Greenland 2020  wwe the undoing big sky neXt the mandalorian s02e01 Below Deck S08E04 Next S01E05 The Undoing S01E04 private eyes Animaniacs s06e09 720p The Voice S19E11 The Curse of Oak Island S08E03 NCIS Boss Level 2020 bull The Mandalorian S02E03 star trek discovery s03e06 Fargo S04E10 ddr Run 2020 supernatural A Teacher s01e05 Big Sky S01E01 minx Star Trek Discovery Tenet 2020 Let Him Go 2020 The Undoing S01E05 Honest Thief 2020 Jiu Jitsu 2020 xxx The Mandalorian S02E04 mandalorian the good doctor Animaniacs s06e11 720p 0 His Dark Materials S02E03 Jingle Jangle A Christmas Journey 2020 FBI S03E02 The New Mutants 2020 Fear the Walking Dead S06E07 tenet yts Roald Dahls The Witches 2020 etrg etmovies The Mandalorian ettv dark 7 white Freaky 2020 his dark materials evo Fatman 2020 The Walking Dead World Beyond s01e08 hindi rq.mp4 
Warning! Use a VPN When Downloading Torrents!
Your IP Address is 3.237.67.179. Location United States
Your Internet Provider can see when you download torrents! Hide your IP Address with a VPN
ETTV warns: You should use VPN to hide your torrenting. HIDE ME NOW
ETTV Recommended TV Shows
FBI.Most.Wanted.S02E02.720p.HDTV.x264-SYNCOPY torrent
FBI.S03E02.720p.HDTV.x264-SYNCOPY torrent
Life.Below.Zero.S15E03.Bad.Bones.WEB.h264-CAFFEiNE torrent
NCIS.S18E02.720p.HDTV.x264-SYNCOPY torrent
NeXt.2020.S01E05.720p.WEB.H264-CAKES torrent
The.Bachelorette.S16E07.720p.WEB.h264-KOGi torrent
The.Curse.of.Oak.Island.S08E03.720p.HDTV.x264-SYNCOPY torrent
NJPW 2020 11 22 World Tag League 2020 Day 4 ENGLISH 720p WEB h264-LATE [TJET] torrent
AEW DARK 24th Nov 2020 WEBRip h264-TJ [TJET] torrent
AEW Dynamite 2020 11 25 HDTV x264-NWCHD [TJET] torrent

ETTV Recommended SD
Uncle.Frank.2020.HDRip.XviD.AC3-EVO torrent
The Christmas Chronicles 2.2020.HDRip.XviD.AC3-EVO torrent
Stardust.2020.HDRip.XviD.AC3-EVO torrent
Happiest.Season.2020.HDRip.XviD.AC3-EVO torrent

ETTV Recommended HD
Wreck (2020) 720p HDRip [Hindi-Sub] x264 torrent
A Crafty Christmas Romance 2020 720p WEB-DL H264 BONE torrent
I Spit On Your Grave - Complete 5 Movie Collection 1978-2019 Eng Subs 720p [H264-mp4] torrent
Lockout 2012 Unrated BluRay 1080p DTS AC3 x264-3Li torrent

ETTV Recommended UHD
Beverly.Hills.Cop.1984.MULTi.2160p.UHD.Bluray.DTS-HDMA.5.1.HEVC-DDR.mkv torrent
Fearless.2020.2160p.HDR.WEB.DDP.5.1.HEVC-DDR.mkv torrent
Groundhog.Day.1993.MULTi.2160p.UHD.Blu-ray.HEVC.Atmos.TrueHD.7.1-DDR.mkv torrent
Let.Him.Go.2020.2160p.HDR.WEB.DDP.5.1.HEVC-DDR.mkv torrent
The.Great.Gatsby.2013.UHD.2160p.HDR.BluRay.DTS-HDMA.5.1.HEVC-DDR.mkv torrent
King.of.New.York.1990.2160p.HDR.Blu-ray.DTS-HD.MA.5.1.HEVC-DDR.mkv torrent

ETTV Recommended Cam
The Secrets We Keep 2020 HDCAM-C1NEM4 torrent
The Comeback Trail 2020 720p HDCAM-C1NEM4 torrent

ETTV Recommended Foreign
The Host - Gwoemul (2006).1080p.H264.ita.kor.Ac3.sub.ita.eng.fre-MIRCrew torrent
BlackHat (2015).720p.H264.ita.Ac3-5.1.sub.eng-MIRCrew torrent
The.Spanish.Princess.S02E07.Fede.iTALiAN.MULTi.1080p.WEB.x264-MeM.mkv torrent
Uncle Frank (2020) Zio Frank FullHD 1080p.H264 Ita Eng AC3 5.1 Multisub ODS torrent
Tokyo Ghoul S (2019) ITA AC3 5.1 BDRip 1080p H264 - L@Z59 - iDN CreW.mkv torrent
The Christmas Chronicles 2 (2020) 720p [Hindi Dub + English] HDRip x264 AAC (DD 5.1) ESub By Full4Movies torrent

ETTV Recommended Misc
Luke Titus - Plasma   Syncopated Jazz, Glitch, Drum & Bass, R&B (2020)  (ETTV)~320  kbps Beats⭐ torrent
Billboard Hot 100 Singles Chart (28-Nov-2020) Mp3 320kbps Songs [PMEDIA] ⭐️ torrent
Bon Jovi - Slippery When Wet (1986) (PBTHAL LP 24-96) [FLAC] vtwin88cube torrent
85 Tracks Disco Forever (ETTV) Playlist Spotify ~320  kbps Beats⭐ torrent
VA - Bravo Hits Party 2000er [3CD] (2020) Mp3 320kbps [PMEDIA]⭐️ torrent
[indie-pop, indie-rock] (2020) beabadoobee - Fake It Flowers [FLAC] [DarkAngie] torrent


Download Torrent "Police Power (Thimiru Pudichavan) (2020) 720p UNCUT [Hindi Dubbed - Tamil] ..."

IMDB Details
Description:

N/A

Genre:

N/A

Download Torrent (Magnet)
Download Torrent (File)

Seeds: 161
Leechers: 415

Uploaded by:
full4movies


Category:
Movies > Dubs/Dual Audio


Details
Title:Police Power (Thimiru Pudichavan) (2020) 720p UNCUT [Hindi Dubbed - Tamil] ...
Description:


Visit Us = https://full4movies.xyz/

General
Complete name                  : Police Power (Thimiru Pudichavan) (2020) 720p UNCUT [Hindi Dubbed - Tamil] HDRip x264 AC3 ESub By Full4Movies.mkv
Format                         : Matroska
Format version                 : Version 4
File size                      : 1.61 GiB
Duration                       : 2 h 34 min
Overall bit rate               : 1 493 kb/s
Encoded date                   : UTC 2020-11-21 04:56:59
Writing application            : mkvmerge v8.0.0 ('Til The Day That I Die') 32bit
Writing library                : libebml v1.3.1 + libmatroska v1.4.2

Video
ID                             : 1
Format                         : AVC
Format/Info                    : Advanced Video Codec
Format profile                 : [email protected]
Format settings                : CABAC / 4 Ref Frames
Format settings, CABAC         : Yes
Format settings, Reference fra : 4 frames
Codec ID                       : V_MPEG4/ISO/AVC
Duration                       : 2 h 34 min
Bit rate                       : 1 171 kb/s
Width                          : 1 280 pixels
Height                         : 544 pixels
Display aspect ratio           : 2.35:1
Frame rate mode                : Constant
Frame rate                     : 25.000 FPS
Color space                    : YUV
Chroma subsampling             : 4:2:0
Bit depth                      : 8 bits
Scan type                      : Progressive
Bits/(Pixel*Frame)             : 0.067
Stream size                    : 1.26 GiB (78%)
Writing library                : x264 core 148 r2708 86b7198
Default                        : Yes
Forced                         : No
Color range                    : Limited
Color primaries                : BT.709
Transfer characteristics       : BT.709
Matrix coefficients            : BT.709

Audio #1
ID                             : 2
Format                         : AC-3
Format/Info                    : Audio Coding 3
Commercial name                : Dolby Digital
Codec ID                       : A_AC3
Duration                       : 2 h 34 min
Bit rate mode                  : Constant
Bit rate                       : 192 kb/s
Channel(s)                     : 2 channels
Channel layout                 : L R
Sampling rate                  : 48.0 kHz
Frame rate                     : 31.250 FPS (1536 SPF)
Compression mode               : Lossy
Delay relative to video        : -5 ms
Stream size                    : 212 MiB (13%)
Language                       : Hindi
Service kind                   : Complete Main
Default                        : Yes
Forced                         : Yes

Audio #2
ID                             : 3
Format                         : AC-3
Format/Info                    : Audio Coding 3
Commercial name                : Dolby Digital
Codec ID                       : A_AC3
Duration                       : 2 h 34 min
Bit rate mode                  : Constant
Bit rate                       : 128 kb/s
Channel(s)                     : 2 channels
Channel layout                 : L R
Sampling rate                  : 48.0 kHz
Frame rate                     : 31.250 FPS (1536 SPF)
Compression mode               : Lossy
Delay relative to video        : -5 ms
Stream size                    : 141 MiB (9%)
Language                       : Tamil
Service kind                   : Complete Main
Default                        : No
Forced                         : No

Text
ID                             : 4
Format                         : ASS
Codec ID                       : S_TEXT/ASS
Codec ID/Info                  : Advanced Sub Station Alpha
Duration                       : 2 h 32 min
Bit rate                       : 129 b/s
Count of elements              : 2551
Compression mode               : Lossless
Stream size                    : 144 KiB (0%)
Default                        : No
Forced                         : No

Screen Shoots
Category:Movies > Dubs/Dual Audio
Lang:Hindi  Hindi
Total Size:1.61 GB
Info Hash:35732b7e30a85053ee9ca98fec581a77d1802d42
Added By:full4movies
Date Added:21-11-2020 05:58:55

  

Files

File List: 
 File Size
Police Power (Thimiru Pudichavan) (2020) 720p UNCUT [Hindi Dubbed - Tamil] HDRip x264 AC3 ESub By Full4Movies.mkv1.61 GB



Comments

There are currently no comments. Be the first one to write something !