The Flight Attendant S01E04 tenet hindi 2020 fargo the mandalorian yts star trek discovery Happiest Season 2020 mandalorian 2160p Fatman 2020 The Curse of Oak Island S08E04 Greenland 2020 The Flight Attendant S01E01 the walking dead rq.mp4 Jiu Jitsu 2020 The Undoing S01E04 Star Trek Discovery S03E07 Tenet 2020 The Mandalorian S02E04 the curse of oak island Freaky 2020 star trek The Conners S03E06 SEAL Team s04e01 The Undoing S01E02 ddr xxx evo The Bachelorette S16E08 the undoing Next S01E06 The Goldbergs S08E07 The Masked Singer S04E10 Star Trek Discovery S03E08 Seal team Honest Thief 2020 wwe  SEAL Team S04E02 marvel week The Undoing S01E01 His Dark Materials Superintelligence 2020 The Undoing S01E03 Hillbilly Elegy 2020 Big Sky S01E03 etrg the flight attendant s01e02 Tamil The flight attendant i may destroy you The Croods A New Age 2020 Let Him Go 2020 next Aew For Life S02E03 The Flight Attendant S01E03 Hindi The New Mutants 2020 The Mandalorian S02E05 The Good Doctor S04E05 Run 2020 His Dark Materials S02E04 etmovies ettv ncis The Undoing S01E05 0 The Christmas Chronicles Part Two 2020 The Undoing S01E06 The Mandalorian S02E03 ethd 
Warning! Use a VPN When Downloading Torrents!
Your IP Address is 3.216.79.60. Location United States
Your Internet Provider can see when you download torrents! Hide your IP Address with a VPN
ETTV warns: You should use VPN to hide your torrenting. HIDE ME NOW
ETTV Recommended TV Shows
Star.Trek.Discovery.S03E08.WEBRip.x264-ION10 torrent
A.Million.Little.Things.S03E02.720p.HDTV.x264-SYNCOPY torrent
Greys.Anatomy.S17E04.720p.HDTV.x264-SYNCOPY torrent
Law.and.Order.SVU.S22E03.720p.HDTV.x264-SYNCOPY torrent
Mom.S08E04.720p.HDTV.x264-SYNCOPY torrent
Stephen.Colbert.2020.12.03.Christopher.Krebs.720p.WEB.H264-JEBAITED torrent
The.Daily.Show.2020.12.03.720p.WEB.h264-BAE torrent
The.Mandalorian.S02E06.WEBRip.x264-ION10 torrent

ETTV Recommended SD
Legacy.Of.Lies.2020.BDRip.XviD.AC3-EVO torrent
The.Loss.Adjuster.2020.HDRip.XviD.AC3-EVO torrent
The.Knight.and.the.Princess.2020.HDRip.XviD.AC3-EVO torrent
The.Taverna.2020.HDRip.XviD.AC3-EVO torrent

ETTV Recommended HD
Red Planet - Sci-Fi 2000 Eng Ita Rus Multi-Subs 720p [H264-mp4] torrent
Count Three and Pray  (Western 1955)  Van Heflin  720p  BrRip torrent
Avengement (2019) [Scott Adkins] 1080p H264 DolbyD 5.1 ūüíé nickarad torrent
Free.Lunch.Express.2020.HDRip.XviD.AC3-EVO torrent

ETTV Recommended UHD
The.Doorman.2020.MULTi.2160p.BluRay.SDR.DTS-HD.MA.5.1.HEVC-DDR.mkv torrent
Possessor.2020.HDR.2160p.WEB.DDP5.1.HEVC-DDR.mkv torrent
Life.in.a.Year.2020.HDR.2160p.WEB.DDP5.1.HEVC-DDR.mkv torrent
Coming.To.America.1988.MULTi.2160p.HDR.Blu-Ray.DTS-HDMA.5.1.HEVC-DDR.mkv torrent
Collateral.2004.MULTi.2160p.BluRay.HEVC.DTS-HD.MA.5.1-DDR.mkv torrent
Blade.1988.MULTi.2160p.HDR.Bluray.Atmos.7.1.HEVC-DDR.mkv torrent

ETTV Recommended Cam
The Comeback Trail 2020 720p HDCAM-C1NEM4 torrent
Let Him Go (2020) 720p HDCAM [Hindi-Sub] x264 1XBET torrent

ETTV Recommended Foreign
Resident.Evil.2002.ITA.ENG.2160p.UHD.BluRay.x265.HDR-MeM.mkv torrent
Voces (2020) ITA-SPA Ac3 5.1 WebRip 1080p H264 [ArMor] torrent
Anastasia: Once Upon a Time (2020).1080p.H264.ita.Ac3-5.1.sub.ita.eng-MIRCrew torrent
Waiting for the Barbarians (2019) ITA-ENG Ac3 5.1 BDRip 1080p H264 [ArMor] torrent
Berlin Alexanderplatz 2020 German PROPER 720p BluRay HEVC x265-RMTeam  torrent
Azem 4 : Alacakaranlik (2016) 720p WEBRip x264 Eng Subs [Dual Audio] [Hindi DD 2.0 - Turkish 2.0] Exclusive By -=!Dr.STAR!=- torrent

ETTV Recommended Misc
Bruce Springsteen - 2 Live Concerts (25th June 2005 + 28th April 2008) (2020) [24Bit-Hi-Res FLAC] [DJ] torrent
[indie-pop, indie-rock] (2020) Adrianne Lenker - songs and instrumentals [FLAC] [DarkAngie] torrent
[indie-rock] (2020) Juanita Stein - Snapshot [FLAC] [DarkAngie] torrent
King Crimson - Frame By Frame - The Essential King Crimson (4CD) (1991) (320) [DJ] torrent
Sting - Duets (2020) Mp3 320kbps [PMEDIA] ‚≠źÔłŹ torrent
100 Tracks ~Soft Rock (ETTV)  Playlist Spotify~320  kbps Beats‚≠ź torrent


Download Torrent "Machete.2010.BRRip.XviD.B4ND1T69"

IMDB Details
Description:

After being set-up and betrayed by the man who hired him to assassinate a Texas Senator, an ex-Federale launches a brutal rampage of revenge against his former boss.

Genre:

Action, Crime, Thriller

Download Torrent (Magnet)
Download Torrent (File)

Seeds: 83
Leechers: 29

Uploaded by:
B4ND1T69


Category:
Movies > XviD


Details
Title:Machete.2010.BRRip.XviD.B4ND1T69
Description:
Machete.2010.BRRip.XviD.B4ND1T69



Directors: Ethan Maniquis, Robert Rodriguez
Writers: Robert Rodriguez, √Ālvaro Rodr√≠guez
Stars: Danny Trejo, Michelle Rodriguez, Robert De Niro

Plot/Story:
After being set-up and betrayed by the man who hired him to assassinate a Texas Senator, an ex-Federale launches a brutal rampage of revenge against his former boss.

General
Complete name               : Machete.2010.BRRip.XviD.B4ND1T69.avi
Format                      : AVI
Format/Info                 : Audio Video Interleave
File size                   : 1.28 GiB
Duration                    : 1 h 44 min
Overall bit rate            : 1 741 kb/s
Subtitles                   : Yes...Hardcoded for non-English parts + file included(HI)

Video
ID                          : 0
Format                      : MPEG-4 Visual
Format profile¬†¬†¬†¬†¬†¬†¬†¬†¬†¬†¬†¬†¬† : Advanced [email protected]
Format settings, BVOP       : 2
Format settings, QPel       : No
Format settings, GMC        : No warppoints
Format settings, Matrix     : Default (H.263)
Codec ID                    : XVID
Codec ID/Hint               : XviD
Duration                    : 1 h 44 min
Bit rate                    : 1 600 kb/s
Width                       : 720 pixels
Height                      : 390 pixels
Display aspect ratio        : 1.85:1
Frame rate                  : 23.976 (24000/1001) FPS
Color space                 : YUV
Chroma subsampling          : 4:2:0
Bit depth                   : 8 bits
Scan type                   : Progressive
Compression mode            : Lossy
Bits/(Pixel*Frame)          : 0.238
Stream size                 : 1.17 GiB (92%)
Writing library             : XviD 64

Audio
ID                          : 1
Format                      : MPEG Audio
Format version              : Version 1
Format profile              : Layer 3
Codec ID                    : 55
Codec ID/Hint               : MP3
Duration                    : 1 h 44 min
Bit rate mode               : Constant
Bit rate                    : 128 kb/s
Channel(s)                  : 2 channels
Sampling rate               : 48.0 kHz
Compression mode            : Lossy
Stream size                 : 96.1 MiB (7%)
Alignment                   : Aligned on interleaves
Interleave, duration        : 24  ms (0.58 video frame)

Screenshots:










Please Seed For As Long As Possible
Or At Least 1:1 Ratio...Thanks
Enjoy Peeps

Category:Movies > XviD
Lang:English  English
Total Size:1.28 GB
Info Hash:d70310395388018fb114c9a54a12ed9cc6b5f366
Added By:B4ND1T69
Date Added:21-11-2020 23:47:59

  

Files

File List: 
 File Size
Downloaded from 1337x.txt61.00 B
Downloaded from ETTV.txt55.00 B
Downloaded from newkatcr.co.txt139.00 B
Downloaded from ProStyleX.txt54.00 B
Downloaded from The Pirate Bay.txt57.00 B
Machete.2010.BRRip.XviD.B4ND1T69.avi1.28 GB
Machete.2010.BRRip.XviD.B4ND1T69.srt86.79 kB



Comments

There are currently no comments. Be the first one to write something !