The Flight Attendant S01E04 tenet hindi 2020 fargo the mandalorian yts star trek discovery Happiest Season 2020 mandalorian 2160p Fatman 2020 The Curse of Oak Island S08E04 Greenland 2020 The Flight Attendant S01E01 the walking dead rq.mp4 Jiu Jitsu 2020 The Undoing S01E04 Star Trek Discovery S03E07 Tenet 2020 The Mandalorian S02E04 the curse of oak island Freaky 2020 star trek The Conners S03E06 SEAL Team s04e01 The Undoing S01E02 ddr xxx evo The Bachelorette S16E08 the undoing Next S01E06 The Goldbergs S08E07 The Masked Singer S04E10 Star Trek Discovery S03E08 Seal team Honest Thief 2020 wwe  SEAL Team S04E02 marvel week The Undoing S01E01 His Dark Materials Superintelligence 2020 The Undoing S01E03 Hillbilly Elegy 2020 Big Sky S01E03 etrg the flight attendant s01e02 Tamil The flight attendant i may destroy you The Croods A New Age 2020 Let Him Go 2020 next Aew For Life S02E03 The Flight Attendant S01E03 Hindi The New Mutants 2020 The Mandalorian S02E05 The Good Doctor S04E05 Run 2020 His Dark Materials S02E04 etmovies ettv ncis The Undoing S01E05 0 The Christmas Chronicles Part Two 2020 The Undoing S01E06 The Mandalorian S02E03 ethd 
Warning! Use a VPN When Downloading Torrents!
Your IP Address is 3.216.79.60. Location United States
Your Internet Provider can see when you download torrents! Hide your IP Address with a VPN
ETTV warns: You should use VPN to hide your torrenting. HIDE ME NOW
ETTV Recommended TV Shows
Stephen.Colbert.2020.12.01.Bryan.Cranston.720p.WEB.H264-JEBAITED torrent
The.Curse.of.Oak.Island.S08E04.720p.HDTV.x264-SYNCOPY torrent
Life.Below.Zero.S15E04.Inside.Out.WEB.h264-CAFFEiNE torrent
WWE NXT 2020 12 02 HDTV x264-Star [TJET] torrent
AEW Dynamite 2020 12 02 Winter Is Coming 720p HDTV x264-NWCHD [TJET] torrent
Star.Trek.Discovery.S03E08.WEBRip.x264-ION10 torrent
[WWE] Total Bellas S06E03 A Bella Babymoon HDTV x264-CRiMSON [TJET] torrent
Miz and Mrs S02E12 WEB h264-BAE [TJET] torrent

ETTV Recommended SD
Legacy.Of.Lies.2020.BDRip.XviD.AC3-EVO torrent
The.Loss.Adjuster.2020.HDRip.XviD.AC3-EVO torrent
The.Knight.and.the.Princess.2020.HDRip.XviD.AC3-EVO torrent
The.Taverna.2020.HDRip.XviD.AC3-EVO torrent

ETTV Recommended HD
Red Planet - Sci-Fi 2000 Eng Ita Rus Multi-Subs 720p [H264-mp4] torrent
Count Three and Pray  (Western 1955)  Van Heflin  720p  BrRip torrent
Avengement (2019) [Scott Adkins] 1080p H264 DolbyD 5.1 ūüíé nickarad torrent
Free.Lunch.Express.2020.HDRip.XviD.AC3-EVO torrent

ETTV Recommended UHD
The.Doorman.2020.MULTi.2160p.BluRay.SDR.DTS-HD.MA.5.1.HEVC-DDR.mkv torrent
Possessor.2020.HDR.2160p.WEB.DDP5.1.HEVC-DDR.mkv torrent
Life.in.a.Year.2020.HDR.2160p.WEB.DDP5.1.HEVC-DDR.mkv torrent
Coming.To.America.1988.MULTi.2160p.HDR.Blu-Ray.DTS-HDMA.5.1.HEVC-DDR.mkv torrent
Collateral.2004.MULTi.2160p.BluRay.HEVC.DTS-HD.MA.5.1-DDR.mkv torrent
Blade.1988.MULTi.2160p.HDR.Bluray.Atmos.7.1.HEVC-DDR.mkv torrent

ETTV Recommended Cam
The Comeback Trail 2020 720p HDCAM-C1NEM4 torrent
Let Him Go (2020) 720p HDCAM [Hindi-Sub] x264 1XBET torrent

ETTV Recommended Foreign
Resident.Evil.2002.ITA.ENG.2160p.UHD.BluRay.x265.HDR-MeM.mkv torrent
Voces (2020) ITA-SPA Ac3 5.1 WebRip 1080p H264 [ArMor] torrent
Anastasia: Once Upon a Time (2020).1080p.H264.ita.Ac3-5.1.sub.ita.eng-MIRCrew torrent
Waiting for the Barbarians (2019) ITA-ENG Ac3 5.1 BDRip 1080p H264 [ArMor] torrent
Berlin Alexanderplatz 2020 German PROPER 720p BluRay HEVC x265-RMTeam  torrent
Azem 4 : Alacakaranlik (2016) 720p WEBRip x264 Eng Subs [Dual Audio] [Hindi DD 2.0 - Turkish 2.0] Exclusive By -=!Dr.STAR!=- torrent

ETTV Recommended Misc
Bruce Springsteen - 2 Live Concerts (25th June 2005 + 28th April 2008) (2020) [24Bit-Hi-Res FLAC] [DJ] torrent
[indie-pop, indie-rock] (2020) Adrianne Lenker - songs and instrumentals [FLAC] [DarkAngie] torrent
[indie-rock] (2020) Juanita Stein - Snapshot [FLAC] [DarkAngie] torrent
King Crimson - Frame By Frame - The Essential King Crimson (4CD) (1991) (320) [DJ] torrent
Sting - Duets (2020) Mp3 320kbps [PMEDIA] ‚≠źÔłŹ torrent
100 Tracks ~Soft Rock (ETTV)  Playlist Spotify~320  kbps Beats‚≠ź torrent


Download Torrent "Tom And Jerry - The Magic Ring (2001) 720p [Hindi Dubbed - English] HDRip ..."

IMDB Details
Description:

Tom is left in charge of a priceless magical ring by his young wizard master. He is then horrified when the ring gets stuck on Jerry's head, who then runs off into the city.

Genre:

Animation, Action, Comedy, Family, Fantasy

Download Torrent (Magnet)
Download Torrent (File)

Seeds: 48
Leechers: 14

Uploaded by:
full4movies


Category:
Movies > Dubs/Dual Audio


Details
Title:Tom And Jerry - The Magic Ring (2001) 720p [Hindi Dubbed - English] HDRip ...
Description:




Visit Us = https://full4movies.xyz/



General

Complete name                  : Tom And Jerry  - The Magic Ring (2001) 720p [Hindi Dubbed - English] HDRip x264 AC3 ESub By Full4Movies.mkv

Format                         : Matroska

Format version                 : Version 4

File size                      : 671 MiB

Duration                       : 1 h 2 min

Overall bit rate               : 1 505 kb/s

Encoded date                   : UTC 2020-11-21 12:37:17

Writing application            : mkvmerge v8.0.0 ('Til The Day That I Die') 32bit

Writing library                : libebml v1.3.1 + libmatroska v1.4.2



Video

ID                             : 1

Format                         : AVC

Format/Info                    : Advanced Video Codec

Format profile¬† ¬† ¬† ¬† ¬† ¬† ¬† ¬† ¬†: [email protected]

Format settings                : CABAC / 4 Ref Frames

Format settings, CABAC         : Yes

Format settings, Reference fra : 4 frames

Codec ID                       : V_MPEG4/ISO/AVC

Duration                       : 1 h 2 min

Bit rate                       : 1 150 kb/s

Width                          : 968 pixels

Height                         : 720 pixels

Display aspect ratio           : 4:3

Frame rate mode                : Constant

Frame rate                     : 29.970 (30000/1001) FPS

Color space                    : YUV

Chroma subsampling             : 4:2:0

Bit depth                      : 8 bits

Scan type                      : Progressive

Bits/(Pixel*Frame)             : 0.055

Stream size                    : 512 MiB (76%)

Writing library                : x264 core 159

Language                       : English

Default                        : Yes

Forced                         : No



Audio #1

ID                             : 2

Format                         : AC-3

Format/Info                    : Audio Coding 3

Commercial name                : Dolby Digital

Codec ID                       : A_AC3

Duration                       : 1 h 2 min

Bit rate mode                  : Constant

Bit rate                       : 224 kb/s

Channel(s)                     : 2 channels

Channel layout                 : L R

Sampling rate                  : 48.0 kHz

Frame rate                     : 31.250 FPS (1536 SPF)

Compression mode               : Lossy

Delay relative to video        : -23 ms

Stream size                    : 99.8 MiB (15%)

Language                       : Hindi

Service kind                   : Complete Main

Default                        : Yes

Forced                         : No



Audio #2

ID                             : 3

Format                         : AAC LC

Format/Info                    : Advanced Audio Codec Low Complexity

Codec ID                       : A_AAC-2

Duration                       : 1 h 2 min

Bit rate                       : 129 kb/s

Channel(s)                     : 2 channels

Channel layout                 : L R

Sampling rate                  : 44.1 kHz

Frame rate                     : 43.066 FPS (1024 SPF)

Compression mode               : Lossy

Delay relative to video        : -23 ms

Stream size                    : 57.3 MiB (9%)

Language                       : English

Default                        : No

Forced                         : No



Text

ID                             : 4

Format                         : UTF-8

Codec ID                       : S_TEXT/UTF8

Codec ID/Info                  : UTF-8 Plain Text

Duration                       : 1 h 2 min

Bit rate                       : 19 b/s

Count of elements              : 531

Stream size                    : 8.95 KiB (0%)

Language                       : English

Default                        : Yes

Forced                         : No



Screen Shoots

Category:Movies > Dubs/Dual Audio
Lang:Hindi  Hindi
Total Size:671 MB
Info Hash:7a780b59a5e3aabbb7b5997413e2fd7280f99a02
Added By:full4movies
Date Added:22-11-2020 04:49:19

  

Files

File List: 
 File Size
Tom And Jerry - The Magic Ring (2001) 720p [Hindi Dubbed - English] HDRip x264 AC3 ESub By Full4Movies.mkv671 MB



Comments

There are currently no comments. Be the first one to write something !