S.W.A.T. S04E04 Roald Dahls The Witches 2020 The New Mutants 2020 Station 19 FBI S03E02 The Croods A New Age 2020 Mulan 2020 Greys Anatomy star trek discovery s03e07 tamil  Happiest Season 2020 young sheldon Superintelligence 2020 his dark materials The Masked Singer S04E09 evo Fatman 2020 wwe scam 1992 ncis rq.mp4 2160p ddr The Flight Attendant s01e03 jallikattu The Undoing S01E05 The Mandalorian S02E01 The Amazing Race s32e09 hindi 2020 etrg The Mandalorian S02E03 for life  etmovies The Flight Attendant s01e02 yts neXt S01E05 For Life S02E02 Let Him Go 2020 The Christmas Chronicles Part Two 2020 mandalorian A Charlie Brown Thanksgiving 1973 Honest Thief 2020 the mandalorian s02e05 The Mandalorian  The Mandalorian s02e02 the flight attendant the walking dead The Curse of Oak Island S08E03 Tenet 2020 hindi tenet The Flight Attendant S01E01 NCIS S18E02 National Lampoons Christmas Vacation 1989 mandalorian s02e05 Jiu Jitsu 2020 xxx NeXt Unhinged 2020 The Mandalorian S02E04 Run 2020 ettv Big Sky S01E02 ludo Star Trek Discovery Greenland 2020 Home Alone 1990 ethd SUPERNATURAL Jingle Jangle A Christmas Journey 2020 Freaky 2020 0 blackish 
Warning! Use a VPN When Downloading Torrents!
Your IP Address is 3.237.66.86. Location United States
Your Internet Provider can see when you download torrents! Hide your IP Address with a VPN
ETTV warns: You should use VPN to hide your torrenting. HIDE ME NOW
ETTV Recommended TV Shows
The.Masked.Singer.S04E09.720p.WEB.h264-KOGi torrent
The.Mandalorian.S02E05.1080p.WEB.H264-GGWP torrent
Hells.Kitchen.US.S19E11.WEBRip.x264-ION10 torrent
NJPW 2020 11 25 Best Of The Super Jr.27 Day 5 ENGLISH 720p WEB h264-LATE [TJET] torrent
Cross-Country.2020.11.27.Ruka.Sprint.720p.h264-NX torrent
Jane by Design S01 Complete [720p] [MP4] [crestiec] torrent
WWE Friday Night SmackDown 2020 11 27 1080p HDTV x264-Star [TJET] torrent
F2. 2020. R11. Bahrain Weekend On Sky F1 HD. 1080P torrent

ETTV Recommended SD
Midnight.at.the.Magnolia.2020.HDRip.XviD.AC3-EVO torrent
Tenet.2020.HDRip.XviD.AC3-EVO torrent
After We Collided.2020.BDRip.XviD-EVO torrent
Riding.With.Sugar.2020.HDRip.XviD.AC3-EVO torrent

ETTV Recommended HD
Parallels - Sci-Fi 2015 Eng Subs 1080p [H264-mp4] torrent
Tenet.2020.1080p.HDRip.X264.AC3-EVO torrent
The McMasters  (Western 1970)  Burl Ives  720p torrent
Criminal 2016 BluRay 1080p DTS AC3 x264-3Li torrent

ETTV Recommended UHD
Beverly.Hills.Cop.1984.MULTi.2160p.UHD.Bluray.DTS-HDMA.5.1.HEVC-DDR.mkv torrent
Fearless.2020.2160p.HDR.WEB.DDP.5.1.HEVC-DDR.mkv torrent
Groundhog.Day.1993.MULTi.2160p.UHD.Blu-ray.HEVC.Atmos.TrueHD.7.1-DDR.mkv torrent
Let.Him.Go.2020.2160p.HDR.WEB.DDP.5.1.HEVC-DDR.mkv torrent
The.Great.Gatsby.2013.UHD.2160p.HDR.BluRay.DTS-HDMA.5.1.HEVC-DDR.mkv torrent
King.of.New.York.1990.2160p.HDR.Blu-ray.DTS-HD.MA.5.1.HEVC-DDR.mkv torrent

ETTV Recommended Cam
The Comeback Trail 2020 720p HDCAM-C1NEM4 torrent
Let Him Go (2020) 720p HDCAM [Hindi-Sub] x264 1XBET torrent

ETTV Recommended Foreign
Transmorphers (2007) 720p WEB-DL x264 [Dual Audio] [Hindi DD 2.0 - English 5.1] Exclusive By -=!Dr.STAR!=- torrent
Wild Rose (2018) A Proposito di Rose. BluRay 1080p.H264 Ita Eng AC3 5.1 Sub Ita Eng ODS torrent
Samjin Company English Class 2020 720p Korean H264 BONE torrent
The Witches - Le streghe (2020).720p.H264.ita.eng.Ac3-5.1.sub.ita.eng-MIRCrew torrent
Undine.2020.1080p.BRRip.x264.AC3.HORiZON-ArtSubs torrent
Train to Busan 2 - Peninsula (2020) 720p (Cleaned) Hindi Dubbed HDRip x264 AAC By Full4Movies torrent

ETTV Recommended Misc
Rihanna-Good Girl: Bad Live (2008)[BDRemux 1080p x 264 by alE13 DTS/AC3/PCM][Multi Sub][Eng] torrent
Jennifer Lopez - In The Morning {Single} (2020) Mp3 320kbps [PMEDIA] ⭐️ torrent
The Official UK Top 40 Singles Chart (27.11.2020) Mp3 (320kbps) [Hunter] torrent
Supergrass - Live on Other Planets (2CD) (2020) (320) [DJ] torrent
100 Tracks Relax & Unwind Playlist Spotify  (ETTV)~ 320  kbps Beats⭐ torrent
[indie-rock] (2020) The Nude Party - Midnight Manor [FLAC] [DarkAngie] torrent


Download Torrent "Sixer (2020) 720p Hindi Dubbed HDRip x264 AAC By Full4Movies"

IMDB Details
Description:

N/A

Genre:

N/A

Download Torrent (Magnet)
Download Torrent (File)

Seeds: 50
Leechers: 17

Uploaded by:
full4movies


Category:
Movies > Bollywood


Details
Title:Sixer (2020) 720p Hindi Dubbed HDRip x264 AAC By Full4Movies
Description:


Visit Us = https://full4movies.xyz/

General
Complete name                  : Sixer (2020) 720p Hindi Dubbed HDRip x264 AAC By Full4Movies.mkv
Format                         : Matroska
Format version                 : Version 4
File size                      : 976 MiB
Duration                       : 1 h 56 min
Overall bit rate               : 1 171 kb/s
Encoded date                   : UTC 2020-11-22 08:11:44
Writing application            : mkvmerge v8.0.0 ('Til The Day That I Die') 32bit
Writing library                : libebml v1.3.1 + libmatroska v1.4.2

Video
ID                             : 1
Format                         : AVC
Format/Info                    : Advanced Video Codec
Format profile                 : [email protected]
Format settings                : CABAC / 4 Ref Frames
Format settings, CABAC         : Yes
Format settings, Reference fra : 4 frames
Codec ID                       : V_MPEG4/ISO/AVC
Duration                       : 1 h 56 min
Bit rate                       : 1 078 kb/s
Width                          : 1 280 pixels
Height                         : 544 pixels
Display aspect ratio           : 2.35:1
Frame rate mode                : Constant
Frame rate                     : 25.000 FPS
Color space                    : YUV
Chroma subsampling             : 4:2:0
Bit depth                      : 8 bits
Scan type                      : Progressive
Bits/(Pixel*Frame)             : 0.062
Stream size                    : 894 MiB (92%)
Writing library                : x264 core 155 r2893 b00bcaf
Default                        : Yes
Forced                         : No
Color range                    : Limited
Color primaries                : BT.709
Transfer characteristics       : BT.709
Matrix coefficients            : BT.709

Audio
ID                             : 2
Format                         : AAC LC
Format/Info                    : Advanced Audio Codec Low Complexity
Codec ID                       : A_AAC-2
Duration                       : 1 h 56 min
Bit rate                       : 96.0 kb/s
Channel(s)                     : 2 channels
Channel layout                 : L R
Sampling rate                  : 44.1 kHz
Frame rate                     : 43.066 FPS (1024 SPF)
Compression mode               : Lossy
Delay relative to video        : 11 ms
Stream size                    : 80.1 MiB (8%)
Language                       : Hindi
Default                        : Yes
Forced                         : No

Screen Shoots
Category:Movies > Bollywood
Lang:Hindi  Hindi
Total Size:976 MB
Info Hash:5cf8a3c0a0f7a372fcd56092ae59bcf343ddaee8
Added By:full4movies
Date Added:22-11-2020 08:31:14

  

Files

File List: 
 File Size
Sixer (2020) 720p Hindi Dubbed HDRip x264 AAC By Full4Movies.mkv976 MB



Comments

There are currently no comments. Be the first one to write something !