Superintelligence 2020 Star Trek Discovery ethd mandalorian s02e06 Greys Anatomy S17E04 The Mandalorian Freaky 2020 The Mandalorian s02e06 SEAL Team s04e02 hindi yts rq.mp4 suraj pe mangal bhari The Flight Attendant S01E03 Star Trek Discovery S03E07 The Flight Attendant His Dark Materials ncis Run 2020 Greenland 2020 Star Trek station 19 s04e03 tamil wwe The Good Doctor S04E05 mandalorian Tenet 2020 Young Sheldon S04E04 Big Sky s01e03 young sheldon next ettv The Croods A New Age 2020 Greys Anatomy Freaky xxx For Life S02E03 Fatman 2020 ddr The Mandalorian S02E03 Law and Order SVU S22E03 The Mandalorian S02E04 tenet The New Mutants 2020 The Masked Singer s04e10 The Undoing S01E05 star trek discovery s03e08 The Mandalorian s02e05 Let Him Go 2020 2160p  The Christmas Chronicles Part Two 2020 etrg The Flight Attendant S01E01 neXt S01E06 hindi 2020 Station 19 The Flight Attendant s01e05 mom s08e04 The Conners S03E06 The Undoing S01E06 0 The Flight Attendant S01E02 SEAL Team S04E01 seal team Jiu Jitsu 2020 The Flight Attendant s01e04 the undoing The Undoing S01E01 Honest Thief 2020 etmovies The Curse of Oak Island S08E04 evo 
Warning! Use a VPN When Downloading Torrents!
Your IP Address is 3.239.45.252. Location United States
Your Internet Provider can see when you download torrents! Hide your IP Address with a VPN
ETTV warns: You should use VPN to hide your torrenting. HIDE ME NOW
ETTV Recommended TV Shows
Star.Trek.Discovery.S03E08.WEBRip.x264-ION10 torrent
A.Million.Little.Things.S03E02.720p.HDTV.x264-SYNCOPY torrent
Greys.Anatomy.S17E04.720p.HDTV.x264-SYNCOPY torrent
Law.and.Order.SVU.S22E03.720p.HDTV.x264-SYNCOPY torrent
Mom.S08E04.720p.HDTV.x264-SYNCOPY torrent
Stephen.Colbert.2020.12.03.Christopher.Krebs.720p.WEB.H264-JEBAITED torrent
The.Daily.Show.2020.12.03.720p.WEB.h264-BAE torrent
The.Mandalorian.S02E06.WEBRip.x264-ION10 torrent

ETTV Recommended SD
The.Loss.Adjuster.2020.HDRip.XviD.AC3-EVO torrent
The.Knight.and.the.Princess.2020.HDRip.XviD.AC3-EVO torrent
The.Taverna.2020.HDRip.XviD.AC3-EVO torrent
Honest.Thief.2020.BDRip.XviD.AC3-EVO torrent

ETTV Recommended HD
Avengement (2019) [Scott Adkins] 1080p H264 DolbyD 5.1 ūüíé nickarad torrent
Free.Lunch.Express.2020.HDRip.XviD.AC3-EVO torrent
Godmothered.2020.HDRip.XviD.AC3-EVO torrent
Black.Bear.2020.HDRip.XviD.AC3-EVO torrent

ETTV Recommended UHD
The.Doorman.2020.MULTi.2160p.BluRay.SDR.DTS-HD.MA.5.1.HEVC-DDR.mkv torrent
Possessor.2020.HDR.2160p.WEB.DDP5.1.HEVC-DDR.mkv torrent
Life.in.a.Year.2020.HDR.2160p.WEB.DDP5.1.HEVC-DDR.mkv torrent
Coming.To.America.1988.MULTi.2160p.HDR.Blu-Ray.DTS-HDMA.5.1.HEVC-DDR.mkv torrent
Collateral.2004.MULTi.2160p.BluRay.HEVC.DTS-HD.MA.5.1-DDR.mkv torrent
Blade.1988.MULTi.2160p.HDR.Bluray.Atmos.7.1.HEVC-DDR.mkv torrent

ETTV Recommended Cam
The Comeback Trail 2020 720p HDCAM-C1NEM4 torrent
Let Him Go (2020) 720p HDCAM [Hindi-Sub] x264 1XBET torrent

ETTV Recommended Foreign
Voces (2020) ITA-SPA Ac3 5.1 WebRip 1080p H264 [ArMor] torrent
Anastasia: Once Upon a Time (2020).1080p.H264.ita.Ac3-5.1.sub.ita.eng-MIRCrew torrent
Waiting for the Barbarians (2019) ITA-ENG Ac3 5.1 BDRip 1080p H264 [ArMor] torrent
Berlin Alexanderplatz 2020 German PROPER 720p BluRay HEVC x265-RMTeam  torrent
Azem 4 : Alacakaranlik (2016) 720p WEBRip x264 Eng Subs [Dual Audio] [Hindi DD 2.0 - Turkish 2.0] Exclusive By -=!Dr.STAR!=- torrent
Needle Park Baby 2020 GERMAN 1080p BluRay DD5.1 HEVC x265-RMTeam  torrent

ETTV Recommended Misc
Blue √Ėyster Cult - Live at Rock of Ages Festival 2016 (2020) (320) [DJ] torrent
Eric Clapton - Album Pack YERAYCITO MASTER SERIES SE torrent
The Rolling Stones - Turning Blue & Lonesome (2020) Mp3 320kbps [PMEDIA] ‚≠źÔłŹ torrent
VA - Disco Music - The Greatest Disco Anthology Ever (3CD) (2010) [FLAC] [DJ] torrent
The White Stripes - 2020 - The White Stripes Greatest Hits [FLAC] torrent
80 Track Chillout Lounge Playlist Spotify  (ETTV)~ 320  kbps Beats‚≠ź torrent


Download Torrent "The BFG (2016) 480p [Hindi + Telugu + Tamil + Eng] HDRip x264 AAC ESub By F..."

IMDB Details
Description:

An orphan little girl befriends a benevolent giant who takes her to Giant Country, where they attempt to stop the man-eating giants that are invading the human world.

Genre:

Adventure, Family, Fantasy

Download Torrent (Magnet)
Download Torrent (File)

Seeds: 27
Leechers: 10

Uploaded by:
full4movies


Category:
Movies > Dubs/Dual Audio


Details
Title:The BFG (2016) 480p [Hindi + Telugu + Tamil + Eng] HDRip x264 AAC ESub By F...
Description:


Visit Us = https://full4movies.xyz/

General
Complete name                  : The BFG (2016) 480p [Hindi + Telugu + Tamil + Eng] HDRip x264 AAC ESub By Full4Movies.mkv
Format                         : Matroska
Format version                 : Version 4
File size                      : 709 MiB
Duration                       : 1 h 57 min
Overall bit rate mode          : Variable
Overall bit rate               : 846 kb/s
Encoded date                   : UTC 2020-11-21 16:26:23
Writing application            : mkvmerge v8.0.0 ('Til The Day That I Die') 32bit
Writing library                : libebml v1.3.1 + libmatroska v1.4.2

Video
ID                             : 1
Format                         : AVC
Format/Info                    : Advanced Video Codec
Format profile¬† ¬† ¬† ¬† ¬† ¬† ¬† ¬† ¬†: [email protected]
Format settings                : CABAC / 4 Ref Frames
Format settings, CABAC         : Yes
Format settings, Reference fra : 4 frames
Codec ID                       : V_MPEG4/ISO/AVC
Duration                       : 1 h 57 min
Bit rate                       : 396 kb/s
Width                          : 640 pixels
Height                         : 264 pixels
Display aspect ratio           : 2.40:1
Frame rate mode                : Constant
Frame rate                     : 23.976 (24000/1001) FPS
Color space                    : YUV
Chroma subsampling             : 4:2:0
Bit depth                      : 8 bits
Scan type                      : Progressive
Bits/(Pixel*Frame)             : 0.098
Stream size                    : 332 MiB (47%)
Writing library                : x264 core 157 r2935 545de2f
Language                       : English
Default                        : Yes
Forced                         : No

Audio #1
ID                             : 2
Format                         : MPEG Audio
Format version                 : Version 1
Format profile                 : Layer 3
Format settings                : Joint stereo / MS Stereo
Codec ID                       : A_MPEG/L3
Codec ID/Hint                  : MP3
Duration                       : 1 h 57 min
Bit rate mode                  : Variable
Bit rate                       : 107 kb/s
Nominal bit rate               : 128 kb/s
Channel(s)                     : 2 channels
Sampling rate                  : 44.1 kHz
Frame rate                     : 38.281 FPS (1152 SPF)
Compression mode               : Lossy
Stream size                    : 89.4 MiB (13%)
Writing library                : LAME3.99r
Encoding settings              : -m j -V 4 -q 3 -lowpass 17 --abr 128
Language                       : Hindi
Default                        : Yes
Forced                         : Yes

Audio #2
ID                             : 3
Format                         : MPEG Audio
Format version                 : Version 1
Format profile                 : Layer 3
Format settings                : Joint stereo / MS Stereo
Codec ID                       : A_MPEG/L3
Codec ID/Hint                  : MP3
Duration                       : 1 h 57 min
Bit rate mode                  : Variable
Bit rate                       : 106 kb/s
Nominal bit rate               : 128 kb/s
Channel(s)                     : 2 channels
Sampling rate                  : 44.1 kHz
Frame rate                     : 38.281 FPS (1152 SPF)
Compression mode               : Lossy
Stream size                    : 88.8 MiB (13%)
Writing library                : LAME3.99r
Encoding settings              : -m j -V 4 -q 3 -lowpass 17 --abr 128
Language                       : Telugu
Default                        : No
Forced                         : No

Audio #3
ID                             : 4
Format                         : MPEG Audio
Format version                 : Version 1
Format profile                 : Layer 3
Format settings                : Joint stereo / MS Stereo
Codec ID                       : A_MPEG/L3
Codec ID/Hint                  : MP3
Duration                       : 1 h 57 min
Bit rate mode                  : Variable
Bit rate                       : 106 kb/s
Nominal bit rate               : 128 kb/s
Channel(s)                     : 2 channels
Sampling rate                  : 44.1 kHz
Frame rate                     : 38.281 FPS (1152 SPF)
Compression mode               : Lossy
Stream size                    : 88.8 MiB (13%)
Writing library                : LAME3.99r
Encoding settings              : -m j -V 4 -q 3 -lowpass 17 --abr 128
Language                       : Tamil
Default                        : No
Forced                         : No

Audio #4
ID                             : 5
Format                         : AAC LC
Format/Info                    : Advanced Audio Codec Low Complexity
Codec ID                       : A_AAC-2
Duration                       : 1 h 57 min
Bit rate                       : 127 kb/s
Channel(s)                     : 2 channels
Channel layout                 : L R
Sampling rate                  : 48.0 kHz
Frame rate                     : 46.875 FPS (1024 SPF)
Compression mode               : Lossy
Stream size                    : 106 MiB (15%)
Language                       : English
Default                        : No
Forced                         : No

Text
ID                             : 6
Format                         : UTF-8
Codec ID                       : S_TEXT/UTF8
Codec ID/Info                  : UTF-8 Plain Text
Duration                       : 1 h 45 min
Bit rate                       : 32 b/s
Count of elements              : 927
Stream size                    : 24.8 KiB (0%)
Language                       : English
Default                        : Yes
Forced                         : No

Screen Shoots
Category:Movies > Dubs/Dual Audio
Lang:Hindi  Hindi
Total Size:709 MB
Info Hash:6fef29181821530442a6ef499e7a9dca5d29ea4a
Added By:full4movies
Date Added:22-11-2020 11:03:01

  

Files

File List: 
 File Size
The BFG (2016) 480p [Hindi + Telugu + Tamil + Eng] HDRip x264 AAC ESub By Full4Movies.mkv709 MB



Comments

There are currently no comments. Be the first one to write something !