fargo  xxx ncis The SpongeBob Movie Sponge on the Run 2020 Freaky 2020 Gold Rush S11E05 The Mandalorian S02E03 mirzapur Roald Dahls The Witches 2020 The Undoing Tenet 2020 neXt  The Spanish Princess S02E07 Come Play 2020 The Mandalorian S02E04 tamil Hindi 2020 The Outpost S03E07 evo Fatman 2020 Fargo S04E10 Jingle Jangle A Christmas Journey 2020 ddr NCIS Los Angeles S12E03 Greys Anatomy S17E03 ettv A Simple Murder Borat Subsequent Moviefilm 2020 His Dark Materials Honest Thief 2020 Let Him Go 2020 Run 2020 Family Guy S19E07 The Fresh Prince of Bel-Air Reunion Special 2020 The Undoing S01E05 ethd The Mandalorian S02E01 NCIS New Orleans S07E03 supernatural etmovies The Walking Dead World Beyond S01E08 Love and Monsters 2020 motogp Fear the Walking Dead S06E07 warrior fear the walking dead The Blacklist S08E02 His Dark Materials S02E03 yts wwe  The Mandalorian s02e02 ludo Greenland 2020 mandalorian the mandalorian Real Time with Bill Maher 2020 11 20 The Undoing S01E04 hindi Jiu Jitsu 2020 family guy the outpost scam 1992 Star Trek Discovery S03E06 Star Trek Discovery rq.mp4 Mulan 2020 etrg Unhinged 2020 ufc The New Mutants 2020 warrior s02e08 the walking dead tenet 
Warning! Use a VPN When Downloading Torrents!
Your IP Address is 34.200.252.156. Location United States
Your Internet Provider can see when you download torrents! Hide your IP Address with a VPN
ETTV warns: You should use VPN to hide your torrenting. HIDE ME NOW
ETTV Recommended TV Shows
NCIS.Los.Angeles.S12E03.720p.HDTV.x264-SYNCOPY torrent
The.Outpost.S03E07.720p.WEB.h264-BAE torrent
Pawn.Stars.S18E01.720p.WEB.h264-BAE torrent
Two Guys And A Girl 1998 Season 1 Complete DVDRip x264 [i c] torrent
Vietnam.The.Two.Wars.1946-1975.2of2.The.American.War.x264.AC3.MVGroup.org.mkv torrent
WWE Monday Night Raw 2020 11 23 HDTV x264-Star [TJET] torrent

ETTV Recommended SD
Talking.to.God.2020.HDRip.XviD.AC3-EVO torrent
Martin.and.Margot.2020.HDRip.XviD.AC3-EVO torrent
Boss.Level.2020.HDRip.XviD.AC3-EVO torrent
Voices.2020.HDRip.XviD.AC3-EVO torrent

ETTV Recommended HD
The.Man.with.the.Golden.Arm.1955.(Crime).1080p.BRRip.x264-Classics torrent
Escape to Athena [1979 - UK] WWII adventure torrent
Black Christmas 1974 Remastered 720p BluRay H264 BONE torrent
Gun the Man Down  (Western 1956)  James Arness  720p torrent

ETTV Recommended UHD
Walt.Disney.Animation.Studios.Short.Circuit.Experimental.Films.S01.HDR.2160p.Web.HEVC-DDR torrent
Westworld.Com.plete.Season-03.MULTi.2160p.HDR.Bluray.Atmos.7.1.HEVC-DDR torrent
Nocturne.2020.HDR.2160p.WEB.DDP5.1.HEVC-DDR.mkv torrent
The.Lie.2020.HDR.2160p.WEB-DL.DDP5.1.HEVC-DDR.mkv torrent
Mad.Max.1979.Multi.UHD.2160p.HDR.Bluray.DTS-HDMA.5.1.HEVC-DDR.mkv torrent
Jingle.Jangle.A.Christmas.Journey.2020.4K.MULTI.2160p.HDR.WEB.DDP.5.1.HEVC-DDR.mkv torrent

ETTV Recommended Cam
The Secrets We Keep 2020 HDCAM-C1NEM4 torrent
The Comeback Trail 2020 720p HDCAM-C1NEM4 torrent

ETTV Recommended Foreign
Force of Nature (2020) Extended BluRay 1080p.H264 Ita Eng AC3 5.1 Sub Ita Eng ODS torrent
Robert The Bruce (2019).720p.H264.ita.eng.Ac3-5.1.sub.ita-MIRCrew torrent
An.American.Werewolf.in.London.1981.4K.HDR.2160p.BDRip Ita Eng x265-NAHOM torrent
The.100.S07E05.Benvenuti.su.Bardo.ITA.ENG.1080p.AMZN.WEB-DLMux.H.264-MeM.mkv torrent
Special Agent Teuksuyowon 2020 Korean HDRip H264 BONE torrent
Knife.in.The.Clear.Water.2016.1080p.WEB-DL.x264.AAC.HORiZON-ArtSubs torrent

ETTV Recommended Misc
110 Tracks Cyber Hacktics Retrowave Synthwave (ETTV) 320  kbps Beats⭐ torrent
100 Tracks Country's Greatest Hits The '50s (ETTV)~320  kbps Beats⭐ torrent
Various Artists - Platinum 80s [3CD] (2020) Mp3 320kbps [PMEDIA] ⭐️ torrent
Various Artists - Ultimate Christmas (2020) Mp3 320kbps [PMEDIA] ⭐️ torrent
[folk-rock] (2020) Trees - Trees [50th Anniversary Edition] [FLAC] [DarkAngie] torrent
The Allman Brothers Band - Warner Theatre, Erie, PA 7-19-05 (Live) (2CD) (2020) [FLAC] [DJ] torrent


Download Torrent "Devadas (2019) HDRip 720p [Hindi + Telugu + Tamil] HDRip x264 AAC ESub By F..."

IMDB Details
Description:

N/A

Genre:

N/A

Download Torrent (Magnet)
Download Torrent (File)

Seeds: 72
Leechers: 21

Uploaded by:
full4movies


Category:
Movies > Dubs/Dual Audio


Details
Title:Devadas (2019) HDRip 720p [Hindi + Telugu + Tamil] HDRip x264 AAC ESub By F...
Description:


Visit Us = https://full4movies.xyz/

General
Complete name                  : Devadas (2019) HDRip 720p [Hindi + Telugu + Tamil] HDRip x264 AAC ESub By Full4Movies.mkv
Format                         : Matroska
Format version                 : Version 4
File size                      : 1.69 GiB
Duration                       : 2 h 28 min
Overall bit rate               : 1 620 kb/s
Encoded date                   : UTC 2020-11-22 06:17:38
Writing application            : mkvmerge v8.0.0 ('Til The Day That I Die') 32bit
Writing library                : libebml v1.3.1 + libmatroska v1.4.2

Video
ID                             : 1
Format                         : AVC
Format/Info                    : Advanced Video Codec
Format profile                 : [email protected]
Format settings                : CABAC / 4 Ref Frames
Format settings, CABAC         : Yes
Format settings, Reference fra : 4 frames
Codec ID                       : V_MPEG4/ISO/AVC
Duration                       : 2 h 28 min
Bit rate                       : 1 203 kb/s
Width                          : 1 280 pixels
Height                         : 544 pixels
Display aspect ratio           : 2.35:1
Frame rate mode                : Constant
Frame rate                     : 25.000 FPS
Color space                    : YUV
Chroma subsampling             : 4:2:0
Bit depth                      : 8 bits
Scan type                      : Progressive
Bits/(Pixel*Frame)             : 0.069
Stream size                    : 1.25 GiB (74%)
Writing library                : x264 core 155 r2901 7d0ff22
Default                        : Yes
Forced                         : No
Color range                    : Limited
Color primaries                : BT.709
Transfer characteristics       : BT.709
Matrix coefficients            : BT.709

Audio #1
ID                             : 2
Format                         : AC-3
Format/Info                    : Audio Coding 3
Commercial name                : Dolby Digital
Codec ID                       : A_AC3
Duration                       : 2 h 28 min
Bit rate mode                  : Constant
Bit rate                       : 192 kb/s
Channel(s)                     : 2 channels
Channel layout                 : L R
Sampling rate                  : 48.0 kHz
Frame rate                     : 31.250 FPS (1536 SPF)
Compression mode               : Lossy
Delay relative to video        : -21 ms
Stream size                    : 205 MiB (12%)
Language                       : Hindi
Service kind                   : Complete Main
Default                        : Yes
Forced                         : Yes

Audio #2
ID                             : 3
Format                         : AAC LC
Format/Info                    : Advanced Audio Codec Low Complexity
Codec ID                       : A_AAC-2
Duration                       : 2 h 28 min
Bit rate                       : 98.0 kb/s
Channel(s)                     : 2 channels
Channel layout                 : L R
Sampling rate                  : 48.0 kHz
Frame rate                     : 46.875 FPS (1024 SPF)
Compression mode               : Lossy
Delay relative to video        : -21 ms
Stream size                    : 104 MiB (6%)
Language                       : Telugu
Default                        : No
Forced                         : No

Audio #3
ID                             : 4
Format                         : AAC LC
Format/Info                    : Advanced Audio Codec Low Complexity
Codec ID                       : A_AAC-2
Duration                       : 2 h 28 min
Bit rate                       : 129 kb/s
Channel(s)                     : 2 channels
Channel layout                 : L R
Sampling rate                  : 48.0 kHz
Frame rate                     : 46.875 FPS (1024 SPF)
Compression mode               : Lossy
Delay relative to video        : -21 ms
Stream size                    : 137 MiB (8%)
Language                       : Tamil
Default                        : No
Forced                         : No

Text
ID                             : 5
Format                         : UTF-8
Codec ID                       : S_TEXT/UTF8
Codec ID/Info                  : UTF-8 Plain Text
Duration                       : 2 h 25 min
Bit rate                       : 60 b/s
Count of elements              : 1989
Stream size                    : 64.8 KiB (0%)
Language                       : English
Default                        : Yes
Forced                         : No

Screen Shoots
Category:Movies > Dubs/Dual Audio
Lang:Hindi  Hindi
Total Size:1.69 GB
Info Hash:09fa202180ef8ad193e49491cafe30b4272413b0
Added By:full4movies
Date Added:22-11-2020 11:32:41

  

Files

File List: 
 File Size
Devadas (2019) HDRip 720p [Hindi + Telugu + Tamil] HDRip x264 AAC ESub By Full4Movies.mkv1.69 GB



Comments

There are currently no comments. Be the first one to write something !