the stand wandavision Fatale 2020 Tenet 2020 Real Time with Bill Maher S19E01 legends Monster Hunter 2020 SEAL Team S04E05 The Marksman 2021 Wonder Woman 1984 2020 bhoomi Superstore S06E05 S.W.A.T. S04E07 Prodigal Son S02E01 tamil  evo ddr disenchantment outside the wire gold rush Redemption Day 2021 Servant s02e01 wwe rq.mp4 malayalam Master the expanse One Night in Miami... 2021 tandav master 2021  Last Man Standing S09E03 Soul 2020 Greenland 2020 Synchronic 2020 Chicago Fire S09E03 tamil 2021 WandaVision S01E01 wanda vision shark tank s12e10 MacGyver S05E05 Locked Down 2021 Hindi etrg news of the world News of the World 2020 the power the great Indian kitchen Gold Rush S11E12 Chicago P.D. S08E03 monster hunter ettv The Stand S01E05 gullak A Discovery of Witches S02E02 shadow in the cloud 2020 master tamil yts Law and Order SVU S22E05 hindi 2021 wanda ita Magnum P.I. S03E05 promising young woman 2020 Night Stalker The Hunt for a Serial Killer S01E01 WandaVision s01e02 ethd The Croods A New Age 2020 outside the wire 2021 Gold Rush White Water S04E08 tribhanga xxx your honor s01e06 etmovies 
Warning! Use a VPN When Downloading Torrents!
Your IP Address is 3.239.109.55. Location United States
Your Internet Provider can see when you download torrents! Hide your IP Address with a VPN
ETTV warns: You should use VPN to hide your torrenting. HIDE ME NOW
ETTV Recommended TV Shows
Gold.Rush.S11E12.Resurrecting.Monsters.720p.WEBRip.x264-CAFFEiNE torrent
MacGyver.2016.S05E05.720p.HDTV.x264-SYNCOPY torrent
Magnum.P.I.2018.S03E05.720p.HDTV.x264-SYNCOPY torrent
Penn.and.Teller.Fool.Us.S07E16.720p.WEB.h264-KOGi torrent
Real.Time.with.Bill.Maher.S19E01.720p.WEB.h264-KOGi torrent
Shark.Tank.S12E10.720p.HDTV.x264-SYNCOPY torrent
Stephen.Colbert.2021.01.15.John.Heilemann.720p.WEB.H264-JEBAITED torrent
Whose.Line.Is.It.Anyway.US.S17E02.720p.WEB.h264-KOGi torrent

ETTV Recommended SD
Battle of the V-1 1958 torrent
Outside.the.Wire.2021.HDRip.XviD.AC3-EVO torrent
The.Ultimate.Playlist.of.Noise.2021.HDRip.XviD.AC3-EVO torrent
The Burnt Orange Heresy.2020.BDRip.XviD.AC3-EVO torrent

ETTV Recommended HD
The Mummy (2017)Mp-4 1080p 6ch[DSD] torrent
Body.of.Water.2020.HDRip.XviD.AC3-EVO torrent
Todd (2021) 720p English HDRip x264 AAC By Full4Movies torrent
Lost.Girls.and.Love.Hotels.2020.BRRip.XviD.AC3-EVO torrent

ETTV Recommended UHD
Horizon.Line.2020.2160p.AMZN.WEB.DDP5.1.HDR.HEVC-DDR.mkv torrent
The.Empty.Man.2021.2160p.AMZN.WEB.DDP5.1.HDR.HEVC-DDR.mkv torrent
News.of.the.World.2021.2160p.AMZN.WEB.DDP5.1.HDR.HEVC-DDR.mkv torrent
One.Night.in.Miami.2020.4K.MULTI.2160p.HDR.WEB.EAC3..5.1.HEVC§-DDR.mkv torrent
Promising.Young.Woman.2021.2160p.AMZN.WEB.DDP5.1.HDR.HEVC-DDR.mkv torrent
Clear.And.Present.Danger.1994.MULTI..2160p.HDR.BLURAY.TrueHD.5.1.HEVC-DDR.mkv torrent

ETTV Recommended Cam
The Rescue (2020) English HDCAM x264 AAC By Full4Movies torrent
The Father (2020) English HDCAM x264 AAC By Full4Movies torrent
One Night in Miami (2020) English HDCAM x264 AAC By Full4Movies torrent
It Snows in Benidorm (2020) 720p HDCAM [Hindi-Sub] x264 1XBET torrent

ETTV Recommended Foreign
Back.to.the.Wharf.2020.WEBRip.x264.AAC.720p-Mkvking torrent
Jurassic Shark (2012) 720p BluRay x264 [Dual Audio] [Hindi DD 2.0 - English 5.1] Exclusive By -=!Dr.STAR!=- torrent
Express Raja (2016) HDRip UnCut 1080p [Hindi DD 2.0 – Telugu 2.0] x264 AAC ESub By Full4Movies torrent
Yu Pui Tsuen III (1996) UNRATED 720p BluRay x264 Eng Subs [Dual Audio] [Hindi DD 2.0 - Chinese 2.0] Exclusive By -=!Dr.STAR!=- torrent
Set Play 2020 720p Korean HDRip H264 BONE torrent
The.Day.I.Died.Unclosed.Case.2020.HDRip.720p.Korean.x264.AAC-Mkvking torrent

ETTV Recommended Misc
ZZ Top - Six Pack (3CD) (1987) [FLAC] (Fixed) [FLAC] [DJ] torrent
Billboard Hot 100 Singles Chart (16-January-2021) Mp3 320kbps [PMEDIA] ⭐️ torrent
Stan Getz - Our Favourites (2021) Mp3 320kbps [PMEDIA] ⭐️ torrent
KT Tunstall - Drastic Fantastic (Ultimate Edition) (2021) Mp3 320kbps [PMEDIA] ⭐️ torrent
Bob Dylan - Another Side Of Bob Dylan (1964) (PBTHAL LP 24-96) [FLAC] vtwin88cube torrent
Various Artists - Gospel Blues (2021) Mp3 320kbps [PMEDIA] ⭐️ torrent


Download Torrent "Mane.Number.13.2020.1080p.AMZN.WEB-DL.DD+5.1.x264-Telly.mkv"

IMDB Details
Description:

N/A

Genre:

N/A

Download Torrent (Magnet)
Download Torrent (File)

Seeds: 42
Leechers: 42

Uploaded by:
uploader6969


Category:
Movies > HD 1080p (Great for large screens)


Details
Title:Mane.Number.13.2020.1080p.AMZN.WEB-DL.DD+5.1.x264-Telly.mkv
Description:


General
Unique ID                                : 326964720894247333161206290310369793078 (0xF5FB1D5B33153C55D672E62521365436)
Complete name                            : D:\Mane.Number.13.2020.1080p.AMZN.WEB-DL.DD+5.1.x264-Telly.mkv
Format                                   : Matroska
Format version                           : Version 4
File size                                : 5.95 GiB
Duration                                 : 1 h 46 min
Overall bit rate                         : 8 032 kb/s
Movie name                               : Telly
Encoded date                             : UTC 2020-11-26 05:01:26
Writing application                      : mkvmerge v40.0.0 ('Old Town Road + Pony') 64-bit
Writing library                          : libebml v1.3.9 + libmatroska v1.5.2
Video
ID                                       : 1
Format                                   : AVC
Format/Info                              : Advanced Video Codec
Format profile                           : [email protected]
Format settings                          : CABAC / 4 Ref Frames
Format settings, CABAC                   : Yes
Format settings, Reference frames        : 4 frames
Codec ID                                 : V_MPEG4/ISO/AVC
Duration                                 : 1 h 46 min
Bit rate mode                            : Constant
Bit rate                                 : 7 390 kb/s
Nominal bit rate                         : 10 000 kb/s
Width                                    : 1 920 pixels
Height                                   : 816 pixels
Display aspect ratio                     : 2.35:1
Frame rate mode                          : Constant
Frame rate                               : 24.000 FPS
Color space                              : YUV
Chroma subsampling                       : 4:2:0
Bit depth                                : 8 bits
Scan type                                : Progressive
Bits/(Pixel*Frame)                       : 0.197
Stream size                              : 5.48 GiB (92%)
Title                                    : Telly
Default                                  : Yes
Forced                                   : No
Color range                              : Limited
Color primaries                          : BT.709
Transfer characteristics                 : BT.709
Matrix coefficients                      : BT.709
Audio
ID                                       : 2
Format                                   : E-AC-3
Format/Info                              : Enhanced AC-3
Commercial name                          : Dolby Digital Plus
Codec ID                                 : A_EAC3
Duration                                 : 1 h 46 min
Bit rate mode                            : Constant
Bit rate                                 : 640 kb/s
Channel(s)                               : 6 channels
Channel layout                           : L R C LFE Ls Rs
Sampling rate                            : 48.0 kHz
Frame rate                               : 31.250 FPS (1536 SPF)
Compression mode                         : Lossy
Stream size                              : 486 MiB (8%)
Title                                    : Telly
Language                                 : Kannada
Service kind                             : Complete Main
Default                                  : Yes
Forced                                   : No
Text
ID                                       : 3
Format                                   : UTF-8
Codec ID                                 : S_TEXT/UTF8
Codec ID/Info                            : UTF-8 Plain Text
Duration                                 : 1 h 44 min
Bit rate                                 : 41 b/s
Count of elements                        : 1121
Stream size                              : 31.5 KiB (0%)
Title                                    : Telly
Language                                 : English
Default                                  : No
Forced                                   : No






Category:Movies > HD 1080p
Lang:Kannada
Total Size:5.95 GB
Info Hash:d08cf919c748902c6c3f114b5ee58b1acaedeb94
Added By:uploader6969
Date Added:26-11-2020 05:16:26

  

Files

File List: 
 File Size
Mane.Number.13.2020.1080p.AMZN.WEB-DL.DD+5.1.x264-Telly.mkv5.95 GB



Comments

There are currently no comments. Be the first one to write something !