XXX Wonder Woman 1984 2020 master Jumanji Level One 2021 The Curse of Oak Island S08E12 your honor 9-1-1 Lone Star S02E02 ettv Big Sky S01E06 American Gods S03E03 the little things 2021 Soul 2020 WandaVision S01E03 outside the wire 2021 The Neighborhood s03e08 Fate The Winx Saga s01e01 News of the World 2020 the expanse FBI S03E04 etmovies All American S03E02 Tenet 2020 bull s05e07 Run Hide Fight 2020 ethd ddr The Marksman 2021 Below Deck S08E13 wandavision ita etrg tamil Master 2021 evo The Blacklist S08E03 the white tiger 2021 yts snowpiercer hindi 2021 hindi Monster Hunter 2020 ncis 9-1-1 The good doctor  The Good Doctor S04E08 FBI S03E05 The Bachelor S25E04 Snowpiercer S02E01 NCIS S18E06 Walker S01E01 FBI Most Wanted S02E05 The Croods A New Age 2020 tandav wwe rq.mp4 The Rookie S03E04 The Stand S01E06 paltan Prodigal Son S02E03 fbi A Discovery of Witches s02e03 The Resident S04E03 9-1-1 S04E02 malayalam the white tiger Your Honor S01E07 Redemption Day 2021 monster hunter The Vanished 2020 All Rise S02E07 the expanse s05e09 WandaVision S01E01 
Warning! Use a VPN When Downloading Torrents!
Your IP Address is 3.239.109.55. Location United States
Your Internet Provider can see when you download torrents! Hide your IP Address with a VPN
ETTV warns: You should use VPN to hide your torrenting. HIDE ME NOW
ETTV Recommended TV Shows
American.Housewife.S05E07.720p.HDTV.x264-SYNCOPY torrent
Call.Your.Mother.S01E03.720p.HDTV.x264-SYNCOPY torrent
Chicago.Fire.S09E04.720p.HDTV.x264-SYNCOPY torrent
Chicago.Med.S06E04.720p.HDTV.x264-SYNCOPY torrent
Chicago.PD.S08E04.720p.HDTV.x264-SYNCOPY torrent
Nancy.Drew.2019.S02E02.720p.HDTV.x264-SYNCOPY torrent
S.W.A.T.2017.S04E08.720p.HDTV.x264-SYNCOPY torrent
The.Curse.of.Oak.Island.S08E12.720p.WEB.h264-BAE torrent

ETTV Recommended SD
Skyfire.2019.BRRip.XviD.AC3-EVO torrent
Ammonite.2020.BRRip.XviD.AC3-EVO torrent
Magic.Max.2021.HDRip.XviD.AC3-EVO torrent
Trafficked.A.Parents.Worst.Nightmare.2021.HDRip.XviD.AC3-EVO torrent

ETTV Recommended HD
Elektra (2005) [Jennifer Garner] 1080p H264 DolbyD 5.1 ūüíé nickarad torrent
There's Something About Mary (1998)[BDRemux 1080p x 264 by alE13 DTS/AC3][Multi Audio & Sub][Eng] torrent
The Dam Busters (1955) [REMASTERED] [BDRip 1080p x 264 by alE13 AC3/FLAC][Sub Eng/PL][Eng] torrent
When Eight Bells Toll (1971)[BDRemux 1080p x 264 by alE13 DTS/AC3][Lektor PL/Sub Eng][Eng] torrent

ETTV Recommended UHD
Police.2020.HDR.2160p.WEB.DDP5.1.HEVC-DDR.mkv torrent
The.Climb.2020.HDR.2160p.WEB.DDP5.1.HEVC-DDR.mkv torrent
2012.2009.Multi.UHD.BluRay.2160p.HDR.HEVC.TrueHD.Atmos.7.1-DDR.mkv torrent
Master Z Ip Man Legacy 2018 4K MULTI 2160p HDR WEB AC3 HEVC-DDR.mkv torrent
Money.Monster.2016.4K.MULTI.2160p.HDR.WEB.DTS-HDMA.5.1.HEVC-DDR.mkv torrent
Superbad.2007.Theatrical.Cut.4K.MULTI.2160p.HDR.WEB.AC3.HEVC-DDR.mkv torrent

ETTV Recommended Cam
The Rescue (2020) English HDCAM x264 AAC By Full4Movies torrent
The Father (2020) English HDCAM x264 AAC By Full4Movies torrent
One Night in Miami (2020) English HDCAM x264 AAC By Full4Movies torrent
It Snows in Benidorm (2020) 720p HDCAM [Hindi-Sub] x264 1XBET torrent

ETTV Recommended Foreign
Set Play 2020 720p Korean HDRip H264 BONE torrent
The.Day.I.Died.Unclosed.Case.2020.HDRip.720p.Korean.x264.AAC-Mkvking torrent
Your Honor (2020) 720p S-01 Ep-[01-12] HDRip [Hindi + Tamil + Telugu + Mal] x264 AAC ESub By Full4Movies torrent
Bending The Rules (2012) 720p BluRay x264 Eng Subs [Dual Audio] [Hindi DD 2.0 - English 5.1] Exclusive By -=!Dr.STAR!=- torrent
The Marksman (2021) English HDCAM x264 AAC By Full4Movies torrent
Shooter (2007) AC3 5.1 ITA.ENG 1080p H265 sub ita.eng Sp33dy94 MIRCrew torrent

ETTV Recommended Misc
UB40 - Gold - 2-CD-[MP3-320]-[TFM] torrent
[alternative folk] (2021) Wardruna - Kvitravn [FLAC] [DarkAngie] torrent
Europe - Gold (3CD) (2021) Mp3 320kbps [PMEDIA] ‚≠źÔłŹ torrent
John Denver - Gold (3CD) (2020) Mp3 320kbps [PMEDIA] ‚≠źÔłŹ torrent
[dream-pop, shoegaze] (2021) Sweet Trip - You Will Never Know Why [FLAC] [DarkAngie] torrent
Billboard Hot 100 Singles Chart (30-January-2021) Mp3 320kbps [PMEDIA] ‚≠źÔłŹ torrent


Download Torrent "Air Gear [Webrip] [720p] [ZENAKU]"

IMDB Details
Description:

N/A

Genre:

N/A

Download Torrent (Magnet)
Download Torrent (File)

Seeds: 24
Leechers: 0

Uploaded by:
ZENAKU


Category:
Anime > Dubbed/Subbed


Details
Title:Air Gear [Webrip] [720p] [ZENAKU]
Description:
Added new trackers.

Preview:

left a readme file in there as my tags are messing with playlist and how to subtitles.

[spoiler=Media Info]
General
Unique ID                                : 66756882809771474576101407491564758982 (0x3238E8700C7D739C2F831707E887E7C6)
Complete name                            : Air Gear [Webrip] [720p] [ZENAKU]\1 Air Gear [ZENAKU].mkv
Format                                   : Matroska
Format version                           : Version 4
File size                                : 163 MiB
Duration                                 : 23 min 56 s
Overall bit rate                         : 949 kb/s
Encoded date                             : UTC 2020-10-13 15:28:56
Writing application                      : mkvmerge v51.0.0 ('I Wish') 64-bit
Writing library                          : libebml v1.4.0 + libmatroska v1.6.2
Attachments                              : aaaiight.ttf / ARJULIAN.ttf / DessinImmortel.ttf / LEVIBRUSH.TTF

Video
ID                                       : 4
Format                                   : AVC
Format/Info                              : Advanced Video Codec
Format profile¬† ¬† ¬† ¬† ¬† ¬† ¬† ¬† ¬† ¬† ¬† ¬† ¬† ¬†: [email protected]
Format settings                          : CABAC / 5 Ref Frames
Format settings, CABAC                   : Yes
Format settings, Reference frames        : 5 frames
Codec ID                                 : V_MPEG4/ISO/AVC
Duration                                 : 23 min 56 s
Bit rate                                 : 592 kb/s
Width                                    : 960 pixels
Height                                   : 720 pixels
Display aspect ratio                     : 4:3
Frame rate mode                          : Variable
Frame rate                               : 23.810 FPS
Color space                              : YUV
Chroma subsampling                       : 4:2:0
Bit depth                                : 8 bits
Scan type                                : Progressive
Bits/(Pixel*Frame)                       : 0.036
Stream size                              : 101 MiB (62%)
Writing library                          : x264 core 160 r3000 33f9e14
Default                                  : Yes
Forced                                   : No

Audio #1
ID                                       : 1
Format                                   : AC-3
Format/Info                              : Audio Coding 3
Commercial name                          : Dolby Digital
Codec ID                                 : A_AC3
Duration                                 : 23 min 56 s
Bit rate mode                            : Constant
Bit rate                                 : 224 kb/s
Channel(s)                               : 2 channels
Channel layout                           : L R
Sampling rate                            : 48.0 kHz
Frame rate                               : 31.250 FPS (1536 SPF)
Compression mode                         : Lossy
Stream size                              : 38.3 MiB (24%)
Title                                    : AC3 2.0
Language                                 : Japanese
Service kind                             : Complete Main
Default                                  : No
Forced                                   : No

Audio #2
ID                                       : 5
Format                                   : AAC LC
Format/Info                              : Advanced Audio Codec Low Complexity
Codec ID                                 : S_TEXT/ASS
Codec ID/Info                            : Advanced Sub Station Alpha
Duration                                 : 23 min 56 s
Bit rate                                 : 128 kb/s
Channel(s)                               : 2 channels
Channel layout                           : L R
Sampling rate                            : 48.0 kHz
Frame rate                               : 46.875 FPS (1024 SPF)
Compression mode                         : Lossy
Stream size                              : 21.9 MiB (13%)
Language                                 : English
Default                                  : Yes
Forced                                   : No

Text #1
ID                                       : 2
Format                                   : ASS
Codec ID                                 : S_TEXT/ASS
Codec ID/Info                            : Advanced Sub Station Alpha
Duration                                 : 17 min 18 s
Bit rate                                 : 59 b/s
Count of elements                        : 135
Compression mode                         : Lossless
Stream size                              : 7.58 KiB (0%)
Title                                    : Signs/Songs
Language                                 : English
Default                                  : No
Forced                                   : No

Text #2
ID                                       : 3
Format                                   : ASS
Codec ID                                 : S_TEXT/ASS
Codec ID/Info                            : Advanced Sub Station Alpha
Duration                                 : 23 min 38 s
Bit rate                                 : 151 b/s
Count of elements                        : 435
Compression mode                         : Lossless
Stream size                              : 26.2 KiB (0%)
Title                                    : Dialogue
Language                                 : Japanese
Default                                  : No
Forced                                   : No

Menu
00:00:00.000                             : :Opening
00:01:30.300                             : :Part A
00:08:51.800                             : :Part B
00:21:54.000                             : :Ending
00:23:23.901                             : :Preview
[/spoiler]
Category:Anime > Dubbed/Subbed
Lang:English  English
Total Size:3.79 GB
Info Hash:1c025d16b2a02e884705eb72ad7e0be868817e83
Added By:ZENAKU
Date Added:26-11-2020 09:16:05

  

Files

File List: 
 File Size
06 It's a Rematch! I'll Get My Emblem Back!Air Gear [ZENAKU].mkv145 MB
07 What's Wrong with Rejection_ Onigiri, We're Comrades!Air Gear [ZENAKU].mkv163 MB
08 Defeat Orihara-sensei's Supllementary Exam_ Let's Rediscover Ton-chan-sensei's PastAir Gear [ZENAKU].mkv140 MB
09 Clash! Buffalo vs. Great White SharkAir Gear [ZENAKU].mkv144 MB
1 Air Gear [ZENAKU].mkv163 MB
10 Agito, I'll Drag You Up From the Bottom of the WellAir Gear [ZENAKU].mkv159 MB
11 Team Kogarasumaru Take-offAir Gear [ZENAKU].mkv136 MB
12 She's Finally Here_ The Savior RiderAir Gear [ZENAKU].mkv119 MB
13 What Do You Mean By Icarus' Wings_ I'll Show You My Talent, Rika-neeAir Gear [ZENAKU].mkv158 MB
14 Collision! The Old & New Sky King's Heir vs. the Old & New Sleeping ForestAir Gear [ZENAKU].mkv149 MB
15 I'll Cut Off the Shackle of Thorns!Air Gear [ZENAKU].mkv162 MB
16 Let's Go, Kogarasumaru!Air Gear [ZENAKU].mkv146 MB
17 The Cube Battle in Hell_ Kogarasumaru EvolvesAir Gear [ZENAKU].mkv160 MB
18 Finally a WinAir Gear [ZENAKU].mkv157 MB
19 The Fang's Regalia of Destiny is Howling!Air Gear [ZENAKU].mkv142 MB
2 Screams of the Rez-Boa DogsAir Gear [ZENAKU].mkv148 MB
20 It's Finally the EndAir Gear [ZENAKU].mkv161 MB
21 Genesis Strikes!Air Gear [ZENAKU].mkv161 MB
21.5 Special Trick [ZENAKU].mkv146 MB
22 The Battle for Agito's Documents!Air Gear [ZENAKU].mkv144 MB
23 Genesis's Kansai Division AppearsAir Gear [ZENAKU].mkv142 MB
24 A True Spirit's Battle!Air Gear [ZENAKU].mkv159 MB
25 I'm a Genius!Air Gear [ZENAKU].mkv158 MB
3 Enter the Night KingsAir Gear [ZENAKU].mkv141 MB
4 A Battle for Kazu, Onigiri, and My PrideAir Gear [ZENAKU].mkv153 MB
5 My Body, My Heart is Being Set AflameAir Gear [ZENAKU].mkv128 MB
read me if you need help..txt376.00 B
ZENAKU & PARADOX LOGO.jpg7.14 kB
[TGx]Downloaded from torrentgalaxy.to [ZENAKU].txt635.00 B



Comments

There are currently no comments. Be the first one to write something !