the stand wandavision Fatale 2020 Tenet 2020 Real Time with Bill Maher S19E01 legends Monster Hunter 2020 SEAL Team S04E05 The Marksman 2021 Wonder Woman 1984 2020 bhoomi Superstore S06E05 S.W.A.T. S04E07 Prodigal Son S02E01 tamil  evo ddr disenchantment outside the wire gold rush Redemption Day 2021 Servant s02e01 wwe rq.mp4 malayalam Master the expanse One Night in Miami... 2021 tandav master 2021  Last Man Standing S09E03 Soul 2020 Greenland 2020 Synchronic 2020 Chicago Fire S09E03 tamil 2021 WandaVision S01E01 wanda vision shark tank s12e10 MacGyver S05E05 Locked Down 2021 Hindi etrg news of the world News of the World 2020 the power the great Indian kitchen Gold Rush S11E12 Chicago P.D. S08E03 monster hunter ettv The Stand S01E05 gullak A Discovery of Witches S02E02 shadow in the cloud 2020 master tamil yts Law and Order SVU S22E05 hindi 2021 wanda ita Magnum P.I. S03E05 promising young woman 2020 Night Stalker The Hunt for a Serial Killer S01E01 WandaVision s01e02 ethd The Croods A New Age 2020 outside the wire 2021 Gold Rush White Water S04E08 tribhanga xxx your honor s01e06 etmovies 
Warning! Use a VPN When Downloading Torrents!
Your IP Address is 3.239.109.55. Location United States
Your Internet Provider can see when you download torrents! Hide your IP Address with a VPN
ETTV warns: You should use VPN to hide your torrenting. HIDE ME NOW
ETTV Recommended TV Shows
Gold.Rush.S11E12.Resurrecting.Monsters.720p.WEBRip.x264-CAFFEiNE torrent
MacGyver.2016.S05E05.720p.HDTV.x264-SYNCOPY torrent
Magnum.P.I.2018.S03E05.720p.HDTV.x264-SYNCOPY torrent
Penn.and.Teller.Fool.Us.S07E16.720p.WEB.h264-KOGi torrent
Real.Time.with.Bill.Maher.S19E01.720p.WEB.h264-KOGi torrent
Shark.Tank.S12E10.720p.HDTV.x264-SYNCOPY torrent
Stephen.Colbert.2021.01.15.John.Heilemann.720p.WEB.H264-JEBAITED torrent
Whose.Line.Is.It.Anyway.US.S17E02.720p.WEB.h264-KOGi torrent

ETTV Recommended SD
Battle of the V-1 1958 torrent
Outside.the.Wire.2021.HDRip.XviD.AC3-EVO torrent
The.Ultimate.Playlist.of.Noise.2021.HDRip.XviD.AC3-EVO torrent
The Burnt Orange Heresy.2020.BDRip.XviD.AC3-EVO torrent

ETTV Recommended HD
The Mummy (2017)Mp-4 1080p 6ch[DSD] torrent
Body.of.Water.2020.HDRip.XviD.AC3-EVO torrent
Todd (2021) 720p English HDRip x264 AAC By Full4Movies torrent
Lost.Girls.and.Love.Hotels.2020.BRRip.XviD.AC3-EVO torrent

ETTV Recommended UHD
Horizon.Line.2020.2160p.AMZN.WEB.DDP5.1.HDR.HEVC-DDR.mkv torrent
The.Empty.Man.2021.2160p.AMZN.WEB.DDP5.1.HDR.HEVC-DDR.mkv torrent
News.of.the.World.2021.2160p.AMZN.WEB.DDP5.1.HDR.HEVC-DDR.mkv torrent
One.Night.in.Miami.2020.4K.MULTI.2160p.HDR.WEB.EAC3..5.1.HEVC§-DDR.mkv torrent
Promising.Young.Woman.2021.2160p.AMZN.WEB.DDP5.1.HDR.HEVC-DDR.mkv torrent
Clear.And.Present.Danger.1994.MULTI..2160p.HDR.BLURAY.TrueHD.5.1.HEVC-DDR.mkv torrent

ETTV Recommended Cam
The Rescue (2020) English HDCAM x264 AAC By Full4Movies torrent
The Father (2020) English HDCAM x264 AAC By Full4Movies torrent
One Night in Miami (2020) English HDCAM x264 AAC By Full4Movies torrent
It Snows in Benidorm (2020) 720p HDCAM [Hindi-Sub] x264 1XBET torrent

ETTV Recommended Foreign
Back.to.the.Wharf.2020.WEBRip.x264.AAC.720p-Mkvking torrent
Jurassic Shark (2012) 720p BluRay x264 [Dual Audio] [Hindi DD 2.0 - English 5.1] Exclusive By -=!Dr.STAR!=- torrent
Express Raja (2016) HDRip UnCut 1080p [Hindi DD 2.0 – Telugu 2.0] x264 AAC ESub By Full4Movies torrent
Yu Pui Tsuen III (1996) UNRATED 720p BluRay x264 Eng Subs [Dual Audio] [Hindi DD 2.0 - Chinese 2.0] Exclusive By -=!Dr.STAR!=- torrent
Set Play 2020 720p Korean HDRip H264 BONE torrent
The.Day.I.Died.Unclosed.Case.2020.HDRip.720p.Korean.x264.AAC-Mkvking torrent

ETTV Recommended Misc
ZZ Top - Six Pack (3CD) (1987) [FLAC] (Fixed) [FLAC] [DJ] torrent
Billboard Hot 100 Singles Chart (16-January-2021) Mp3 320kbps [PMEDIA] ⭐️ torrent
Stan Getz - Our Favourites (2021) Mp3 320kbps [PMEDIA] ⭐️ torrent
KT Tunstall - Drastic Fantastic (Ultimate Edition) (2021) Mp3 320kbps [PMEDIA] ⭐️ torrent
Bob Dylan - Another Side Of Bob Dylan (1964) (PBTHAL LP 24-96) [FLAC] vtwin88cube torrent
Various Artists - Gospel Blues (2021) Mp3 320kbps [PMEDIA] ⭐️ torrent


Download Torrent "Inhuman Kiss (2019) Thai (720p BluRay x265 HEVC 10bit AAC 2.0 ESub) - [Musa..."

IMDB Details
Description:

In a far-away village, lived an innocent teenage girl, "Sai" who later discovered herself inheriting the curse of "Krasue". At night, her head would detach from her body and hunts for flesh...

Genre:

Drama, Horror, Romance

Download Torrent (Magnet)
Download Torrent (File)

Seeds: 120
Leechers: 37

Uploaded by:
Musafirboy


Category:
Movies > HEVC/x265 (Super High Quality, Small size, high CPU usage)


Details
Title:Inhuman Kiss (2019) Thai (720p BluRay x265 HEVC 10bit AAC 2.0 ESub) - [Musa...
Description:









Inhuman Kiss (2019) Thai | BluRay | 720p HEVC
IMDb (6.5/10)











:: Source ::
Krasue.Inhuman.Kiss.2019.Blu-ray.REMUX.1080p.AVC.TrueHD.5.1 (19.1 GB)










Media Information

General
Complete name : Inhuman Kiss (2019) Thai (720p BluRay x265 10bit) - [Musafirboy].mkv
Format : Matroska
Format version : Version 4
File size : 1 022 MiB
Duration : 2 h 1 min
Overall bit rate : 1 172 kb/s
Encoded date : UTC 2020-11-26 12:23:56

Video
Format : HEVC
Format/Info : High Efficiency Video Coding
Format profile : Main [email protected]@Main
Codec ID : V_MPEGH/ISO/HEVC
Duration : 2 h 1 min
Bit rate : 942 kb/s
Width : 1 280 pixels
Height : 568 pixels
Display aspect ratio : 2.25:1
Frame rate mode : Constant
Frame rate : 24.000 FPS
Color space : YUV
Chroma subsampling : 4:2:0
Bit depth : 10 bits
Bits/(Pixel*Frame) : 0.054
Stream size : 822 MiB (80%)
Writing library : x265 3.2+9-971180b100f8:[Windows][GCC 9.2.0][64 bit] 10bit
Encoding settings : cpuid=1111039 / frame-threads=4 / numa-pools=24 / wpp / no-pmode / no-pme / no-psnr / no-ssim / log-level=2 / input-csp=1 / input-res=1280x568 / interlace=0 / total-frames=175672 / level-idc=50 / high-tier=1 / uhd-bd=0 / ref=5 / no-allow-non-conformance / no-repeat-headers / annexb / no-aud / no-hrd / info / hash=0 / no-temporal-layers / open-gop / min-keyint=24 / keyint=250 / gop-lookahead=0 / bframes=4 / b-adapt=2 / b-pyramid / bframe-bias=0 / rc-lookahead=20 / lookahead-slices=0 / scenecut=40 / radl=0 / no-splice / no-intra-refresh / ctu=64 / min-cu-size=8 / no-rect / no-amp / max-tu-size=32 / tu-inter-depth=1 / tu-intra-depth=1 / limit-tu=0 / rdoq-level=0 / dynamic-rd=0.00 / no-ssim-rd / signhide / no-tskip / nr-intra=0 / nr-inter=0 / no-constrained-intra / strong-intra-smoothing / max-merge=3 / limit-refs=1 / no-limit-modes / me=1 / subme=5 / merange=57 / temporal-mvp / no-frame-dup / no-hme / weightp / no-weightb / no-analyze-src-pics / deblock=0:0 / sao / no-sao-non-deblock / rd=5 / selective-sao=4 / early-skip / rskip / no-fast-intra / no-tskip-fast / no-cu-lossless / b-intra / no-splitrd-skip / rdpenalty=0 / psy-rd=2.00 / psy-rdoq=0.00 / no-rd-refine / no-lossless / cbqpoffs=0 / crqpoffs=0 / rc=abr / bitrate=941 / qcomp=0.60 / qpstep=4 / stats-write=0 / stats-read=2 / cplxblur=20.0 / qblur=0.5 / ipratio=1.40 / pbratio=1.30 / aq-mode=2 / aq-strength=0.40 / cutree / zone-count=0 / no-strict-cbr / qg-size=32 / no-rc-grain / qpmax=69 / qpmin=0 / no-const-vbv / sar=0 / overscan=0 / videoformat=5 / range=0 / colorprim=1 / transfer=1 / colormatrix=1 / chromaloc=0 / display-window=0 / cll=0,0 / min-luma=0 / max-luma=1023 / log2-max-poc-lsb=8 / vui-timing-info / vui-hrd-info / slices=1 / no-opt-qp-pps / no-opt-ref-list-length-pps / no-multi-pass-opt-rps / scenecut-bias=0.05 / no-opt-cu-delta-qp / no-aq-motion / no-hdr / no-hdr-opt / no-dhdr10-opt / no-idr-recovery-sei / analysis-reuse-level=5 / scale-factor=0 / refine-intra=0 / refine-inter=0 / refine-mv=1 / refine-ctu-distortion=0 / no-limit-sao / ctu-info=0 / no-lowpass-dct / refine-analysis-type=0 / copy-pic=1 / max-ausize-factor=1.0 / no-dynamic-refine / no-single-sei / no-hevc-aq / no-svt / no-field / qp-adaptation-range=1.00
Color range : Limited
Color primaries : BT.709
Transfer characteristics : BT.709
Matrix coefficients : BT.709

Audio
Format : AAC LC
Format/Info : Advanced Audio Codec Low Complexity
Codec ID : A_AAC-2
Duration : 2 h 1 min
Bit rate : 224 kb/s
Channel(s) : 2 channels
Channel layout : L R
Sampling rate : 48.0 kHz
Frame rate : 46.875 FPS (1024 SPF)
Compression mode : Lossy
Stream size : 195 MiB (19%)
Language : Thai

Subtitle #1
Format : UTF-8
Codec ID : S_TEXT/UTF8
Codec ID/Info : UTF-8 Plain Text
Duration : 1 h 55 min
Bit rate : 16 b/s
Count of elements : 658
Stream size : 14.1 KiB (0%)
Language : English

Subtitle #2
Format : PGS
Muxing mode : zlib
Codec ID : S_HDMV/PGS
Codec ID/Info : Picture based subtitle format used on BDs/HD-DVDs
Duration : 1 h 55 min
Bit rate : 13.4 kb/s
Count of elements : 1287
Stream size : 11.1 MiB (1%)
Language : English







Category:Movies > HEVC/x265
Lang:Thai
Total Size:1,022 MB
Info Hash:567fd80d94f0d586a146fe108f02548e0e92b0a5
Added By:Musafirboy
Date Added:26-11-2020 13:02:40

  

Files

File List: 
 File Size
Encoded by Musafirboy.txt397.00 B
Inhuman Kiss (2019) Thai (720p BluRay x265 10bit) - [Musafirboy].mkv1,022 MB



Comments

There are currently no comments. Be the first one to write something !