XXX Wonder Woman 1984 2020 master Jumanji Level One 2021 The Curse of Oak Island S08E12 your honor 9-1-1 Lone Star S02E02 ettv Big Sky S01E06 American Gods S03E03 the little things 2021 Soul 2020 WandaVision S01E03 outside the wire 2021 The Neighborhood s03e08 Fate The Winx Saga s01e01 News of the World 2020 the expanse FBI S03E04 etmovies All American S03E02 Tenet 2020 bull s05e07 Run Hide Fight 2020 ethd ddr The Marksman 2021 Below Deck S08E13 wandavision ita etrg tamil Master 2021 evo The Blacklist S08E03 the white tiger 2021 yts snowpiercer hindi 2021 hindi Monster Hunter 2020 ncis 9-1-1 The good doctor  The Good Doctor S04E08 FBI S03E05 The Bachelor S25E04 Snowpiercer S02E01 NCIS S18E06 Walker S01E01 FBI Most Wanted S02E05 The Croods A New Age 2020 tandav wwe rq.mp4 The Rookie S03E04 The Stand S01E06 paltan Prodigal Son S02E03 fbi A Discovery of Witches s02e03 The Resident S04E03 9-1-1 S04E02 malayalam the white tiger Your Honor S01E07 Redemption Day 2021 monster hunter The Vanished 2020 All Rise S02E07 the expanse s05e09 WandaVision S01E01 
Warning! Use a VPN When Downloading Torrents!
Your IP Address is 3.239.109.55. Location United States
Your Internet Provider can see when you download torrents! Hide your IP Address with a VPN
ETTV warns: You should use VPN to hide your torrenting. HIDE ME NOW
ETTV Recommended TV Shows
Blackish.S07E09.720p.HDTV.x264-SYNCOPY torrent
FBI.Most.Wanted.S02E05.720p.HDTV.x264-SYNCOPY torrent
FBI.S03E05.720p.HDTV.x264-SYNCOPY torrent
Hudson.and.Rex.S03E04.720p.HDTV.x264-SYNCOPY torrent
Mixed-ish.S02E01.720p.HDTV.x264-SYNCOPY torrent
NCIS.S18E06.720p.HDTV.x264-SYNCOPY torrent
The.Expanse.S05E09.WEBRip.x264-ION10 torrent
Zoeys.Extraordinary.Playlist.S02E04.720p.WEB.H264-CAKES torrent

ETTV Recommended SD
Skyfire.2019.BRRip.XviD.AC3-EVO torrent
Ammonite.2020.BRRip.XviD.AC3-EVO torrent
Magic.Max.2021.HDRip.XviD.AC3-EVO torrent
Trafficked.A.Parents.Worst.Nightmare.2021.HDRip.XviD.AC3-EVO torrent

ETTV Recommended HD
Elektra (2005) [Jennifer Garner] 1080p H264 DolbyD 5.1 ūüíé nickarad torrent
There's Something About Mary (1998)[BDRemux 1080p x 264 by alE13 DTS/AC3][Multi Audio & Sub][Eng] torrent
The Dam Busters (1955) [REMASTERED] [BDRip 1080p x 264 by alE13 AC3/FLAC][Sub Eng/PL][Eng] torrent
When Eight Bells Toll (1971)[BDRemux 1080p x 264 by alE13 DTS/AC3][Lektor PL/Sub Eng][Eng] torrent

ETTV Recommended UHD
Police.2020.HDR.2160p.WEB.DDP5.1.HEVC-DDR.mkv torrent
The.Climb.2020.HDR.2160p.WEB.DDP5.1.HEVC-DDR.mkv torrent
2012.2009.Multi.UHD.BluRay.2160p.HDR.HEVC.TrueHD.Atmos.7.1-DDR.mkv torrent
Master Z Ip Man Legacy 2018 4K MULTI 2160p HDR WEB AC3 HEVC-DDR.mkv torrent
Money.Monster.2016.4K.MULTI.2160p.HDR.WEB.DTS-HDMA.5.1.HEVC-DDR.mkv torrent
Superbad.2007.Theatrical.Cut.4K.MULTI.2160p.HDR.WEB.AC3.HEVC-DDR.mkv torrent

ETTV Recommended Cam
The Rescue (2020) English HDCAM x264 AAC By Full4Movies torrent
The Father (2020) English HDCAM x264 AAC By Full4Movies torrent
One Night in Miami (2020) English HDCAM x264 AAC By Full4Movies torrent
It Snows in Benidorm (2020) 720p HDCAM [Hindi-Sub] x264 1XBET torrent

ETTV Recommended Foreign
Set Play 2020 720p Korean HDRip H264 BONE torrent
The.Day.I.Died.Unclosed.Case.2020.HDRip.720p.Korean.x264.AAC-Mkvking torrent
Your Honor (2020) 720p S-01 Ep-[01-12] HDRip [Hindi + Tamil + Telugu + Mal] x264 AAC ESub By Full4Movies torrent
Bending The Rules (2012) 720p BluRay x264 Eng Subs [Dual Audio] [Hindi DD 2.0 - English 5.1] Exclusive By -=!Dr.STAR!=- torrent
The Marksman (2021) English HDCAM x264 AAC By Full4Movies torrent
Shooter (2007) AC3 5.1 ITA.ENG 1080p H265 sub ita.eng Sp33dy94 MIRCrew torrent

ETTV Recommended Misc
UB40 - Gold - 2-CD-[MP3-320]-[TFM] torrent
[alternative folk] (2021) Wardruna - Kvitravn [FLAC] [DarkAngie] torrent
Europe - Gold (3CD) (2021) Mp3 320kbps [PMEDIA] ‚≠źÔłŹ torrent
John Denver - Gold (3CD) (2020) Mp3 320kbps [PMEDIA] ‚≠źÔłŹ torrent
[dream-pop, shoegaze] (2021) Sweet Trip - You Will Never Know Why [FLAC] [DarkAngie] torrent
Billboard Hot 100 Singles Chart (30-January-2021) Mp3 320kbps [PMEDIA] ‚≠źÔłŹ torrent


Download Torrent "Lupin III - La bugia di Fujiko Mine - Mine Fujiko no Uso (2019).1080p.H264...."

IMDB Details
Description:

N/A

Genre:

N/A

Download Torrent (Magnet)
Download Torrent (File)

Seeds: 174
Leechers: 18

Uploaded by:
robbyrs


Category:
Anime > Movies


Details
Title:Lupin III - La bugia di Fujiko Mine - Mine Fujiko no Uso (2019).1080p.H264....
Description:
Lupin III - La bugia di Fujiko Mine - Mine Fujiko no Uso (2019).1080p.H264.ita.jpn.Ac3.sub.ita-MIRCrew


NO FOUND ONLY ORIGINAL RELEASE

My release is always in double track audio italian and Original audio
for select it use VLC or dvd player home
not use wmp

Lupin III - La bugia di Fujiko Mine - Mine Fujiko no Uso (2019)

Quality MIRCrew on HD 1080p da 1,2 gb









Titolo originale¬†¬† ¬†LUPIN THE IIIRD Ś≥įšłćšļĆŚ≠ź„ĀģŚėė
LUPIN THE IIIRD: Mine Fujiko no uso
Lingua originale    giapponese
Paese di produzione    Giappone
Anno    2019
Durata    58 min
Genere    animazione
Regia    Takeshi Koike
Sceneggiatura¬†¬† ¬†YŇęya Takahashi



  Doppiatori originali

    Kan'ichi Kurita: Lupin III
    Kiyoshi Kobayashi: Daisuke Jigen
    Miyuki Sawashiro: Fujiko Mine
    Mamoru Miyano: Bincam
    Tomoe Hanba: Gene

Doppiatori italiani

    Stefano Onofri: Arsenio Lupin III
    Alessandro Maria D'Errico: Daisuke Jigen
    Alessandra Korompay: Fujiko Mine




La bugia di Mine Fujiko vede la sensuale partner di Lupin alle prese con la protezione del giovane Gene, un ragazzo che si ritrova inconsapevolmente vittima di un pericolosissimo sicario di nome Bincam al soldo di Godfrey Mining, una potente multinazionale



Fujiko Mine is on the run with Gene, a boy who knows the location of a stash of $500 million dollars that his deceased father embezzled from the company Godfrey Mining. The boy is targeted by Bincam, an assassin hired by Godfrey Mining with a mysterious ability that allows him to bend a person's will. Bincam's whole body has been honed down from his teeth to finger nails that makes him a walking deadly weapon

   














General

Complete name                            : Lupin III - La bugia di Fujiko Mine - Mine Fujiko no Uso (2019).1080p.h264.ita.jpn.sub.ita-MIRCrew\Lupin III - La bugia di Fujiko Mine - Mine Fujiko no Uso (2019).1080p.h264.ita.jpn.sub.ita-MIRCrew.mkv
Format                                   : Matroska
Format version                           : Version 2
File size                                : 1.21 GiB
Duration                                 : 57mn 36s
Overall bit rate                         : 3 010 Kbps
Movie name                               : MIRCrew
Encoded date                             : UTC 2020-11-25 18:04:44
Writing application                      : Lavf54.63.100
Writing library                          : Lavf54.63.100
COMMENT                                  : MIRCrew

Video
ID                                       : 1
Format                                   : AVC
Format/Info                              : Advanced Video Codec
Format profile¬†¬†¬†¬†¬†¬†¬†¬†¬†¬†¬†¬†¬†¬†¬†¬†¬†¬†¬†¬†¬†¬†¬†¬†¬†¬† : [email protected]
Format settings, CABAC                   : Yes
Format settings, ReFrames                : 2 frames
Codec ID                                 : V_MPEG4/ISO/AVC
Duration                                 : 57mn 36s
Bit rate                                 : 2 500 Kbps
Width                                    : 1 920 pixels
Height                                   : 1 080 pixels
Display aspect ratio                     : 16:9
Frame rate mode                          : Variable
Frame rate                               : 23.976 fps
Color space                              : YUV
Chroma subsampling                       : 4:2:0
Bit depth                                : 8 bits
Scan type                                : Progressive
Bits/(Pixel*Frame)                       : 0.050
Stream size                              : 1 005 MiB (81%)
Writing library                          : x264 core 130 r2273
Encoding settings                        : cabac=1 / ref=2 / deblock=1:-1:-1 / analyse=0x1:0x131 / me=hex / subme=7 / psy=1 / psy_rd=1.00:0.10 / mixed_ref=0 / me_range=16 / chroma_me=1 / trellis=1 / 8x8dct=0 / cqm=0 / deadzone=21,11 / fast_pskip=1 / chroma_qp_offset=-3 / threads=9 / lookahead_threads=1 / sliced_threads=0 / nr=0 / decimate=1 / interlaced=0 / bluray_compat=0 / constrained_intra=0 / bframes=3 / b_pyramid=0 / b_adapt=1 / b_bias=0 / direct=3 / weightb=1 / open_gop=0 / weightp=2 / keyint=230 / keyint_min=23 / scenecut=40 / intra_refresh=0 / rc_lookahead=40 / rc=abr / mbtree=1 / bitrate=2500 / ratetol=1.0 / qcomp=0.60 / qpmin=10 / qpmax=69 / qpstep=4 / vbv_maxrate=24000 / vbv_bufsize=24000 / nal_hrd=none / ip_ratio=1.40 / aq=1:1.00
Language                                 : Italian
Default                                  : Yes
Forced                                   : No

Audio #1
ID                                       : 2
Format                                   : AC-3
Format/Info                              : Audio Coding 3
Mode extension                           : CM (complete main)
Codec ID                                 : A_AC3
Duration                                 : 57mn 36s
Bit rate mode                            : Constant
Bit rate                                 : 256 Kbps
Channel(s)                               : 2 channels
Channel positions                        : Front: L R
Sampling rate                            : 48.0 KHz
Bit depth                                : 16 bits
Compression mode                         : Lossy
Delay relative to video                  : 1mn 5s
Stream size                              : 105 MiB (9%)
Language                                 : Italian
Default                                  : Yes
Forced                                   : No

Audio #2
ID                                       : 3
Format                                   : AC-3
Format/Info                              : Audio Coding 3
Mode extension                           : CM (complete main)
Codec ID                                 : A_AC3
Duration                                 : 57mn 36s
Bit rate mode                            : Constant
Bit rate                                 : 256 Kbps
Channel(s)                               : 2 channels
Channel positions                        : Front: L R
Sampling rate                            : 48.0 KHz
Bit depth                                : 16 bits
Compression mode                         : Lossy
Delay relative to video                  : 1mn 5s
Stream size                              : 105 MiB (9%)
Language                                 : Japanese
Default                                  : Yes
Forced                                   : No

Menu
00:00:00.000                             : :Chapter 01
00:00:41.750                             : :Chapter 02
00:12:48.809                             : :Chapter 03
00:26:19.286                             : :Chapter 04
00:27:00.035                             : :Chapter 05
00:41:30.779                             : :Chapter 06
00:54:48.326                             : :Chapter 07
00:56:49.197                             : :Chapter 08









[left]What do you want to do ?[/left]
New mail

Copy

Category:Anime > Movies
Lang:Italian  Italian
Total Size:1.21 GB
Info Hash:b299fa71d3f20f46d9dc73fd2d1f141a41532b9c
Added By:robbyrs
Date Added:26-11-2020 14:47:47

  

Files

File List: 
 File Size
Lupin III - La bugia di Fujiko Mine - Mine Fujiko no Uso (2019).1080p.h264.ita.jpn.sub.ita-MIRCrew.ita.srt58.02 kB
Lupin III - La bugia di Fujiko Mine - Mine Fujiko no Uso (2019).1080p.h264.ita.jpn.sub.ita-MIRCrew.mkv1.21 GB



Comments

There are currently no comments. Be the first one to write something !