the stand wandavision Fatale 2020 Tenet 2020 Real Time with Bill Maher S19E01 legends Monster Hunter 2020 SEAL Team S04E05 The Marksman 2021 Wonder Woman 1984 2020 bhoomi Superstore S06E05 S.W.A.T. S04E07 Prodigal Son S02E01 tamil  evo ddr disenchantment outside the wire gold rush Redemption Day 2021 Servant s02e01 wwe rq.mp4 malayalam Master the expanse One Night in Miami... 2021 tandav master 2021  Last Man Standing S09E03 Soul 2020 Greenland 2020 Synchronic 2020 Chicago Fire S09E03 tamil 2021 WandaVision S01E01 wanda vision shark tank s12e10 MacGyver S05E05 Locked Down 2021 Hindi etrg news of the world News of the World 2020 the power the great Indian kitchen Gold Rush S11E12 Chicago P.D. S08E03 monster hunter ettv The Stand S01E05 gullak A Discovery of Witches S02E02 shadow in the cloud 2020 master tamil yts Law and Order SVU S22E05 hindi 2021 wanda ita Magnum P.I. S03E05 promising young woman 2020 Night Stalker The Hunt for a Serial Killer S01E01 WandaVision s01e02 ethd The Croods A New Age 2020 outside the wire 2021 Gold Rush White Water S04E08 tribhanga xxx your honor s01e06 etmovies 
Warning! Use a VPN When Downloading Torrents!
Your IP Address is 3.239.109.55. Location United States
Your Internet Provider can see when you download torrents! Hide your IP Address with a VPN
ETTV warns: You should use VPN to hide your torrenting. HIDE ME NOW
ETTV Recommended TV Shows
Gold.Rush.S11E12.Resurrecting.Monsters.720p.WEBRip.x264-CAFFEiNE torrent
MacGyver.2016.S05E05.720p.HDTV.x264-SYNCOPY torrent
Magnum.P.I.2018.S03E05.720p.HDTV.x264-SYNCOPY torrent
Penn.and.Teller.Fool.Us.S07E16.720p.WEB.h264-KOGi torrent
Real.Time.with.Bill.Maher.S19E01.720p.WEB.h264-KOGi torrent
Shark.Tank.S12E10.720p.HDTV.x264-SYNCOPY torrent
Stephen.Colbert.2021.01.15.John.Heilemann.720p.WEB.H264-JEBAITED torrent
Whose.Line.Is.It.Anyway.US.S17E02.720p.WEB.h264-KOGi torrent

ETTV Recommended SD
Battle of the V-1 1958 torrent
Outside.the.Wire.2021.HDRip.XviD.AC3-EVO torrent
The.Ultimate.Playlist.of.Noise.2021.HDRip.XviD.AC3-EVO torrent
The Burnt Orange Heresy.2020.BDRip.XviD.AC3-EVO torrent

ETTV Recommended HD
The Mummy (2017)Mp-4 1080p 6ch[DSD] torrent
Body.of.Water.2020.HDRip.XviD.AC3-EVO torrent
Todd (2021) 720p English HDRip x264 AAC By Full4Movies torrent
Lost.Girls.and.Love.Hotels.2020.BRRip.XviD.AC3-EVO torrent

ETTV Recommended UHD
We.Can.Be.Heroes.2020.4K.MULTI.2160p.HDR.WEB..DDP.5.1.HEVC-DDR.mkv torrent
Horizon.Line.2020.2160p.AMZN.WEB.DDP5.1.HDR.HEVC-DDR.mkv torrent
The.Empty.Man.2021.2160p.AMZN.WEB.DDP5.1.HDR.HEVC-DDR.mkv torrent
News.of.the.World.2021.2160p.AMZN.WEB.DDP5.1.HDR.HEVC-DDR.mkv torrent
One.Night.in.Miami.2020.4K.MULTI.2160p.HDR.WEB.EAC3..5.1.HEVC§-DDR.mkv torrent
Promising.Young.Woman.2021.2160p.AMZN.WEB.DDP5.1.HDR.HEVC-DDR.mkv torrent

ETTV Recommended Cam
The Rescue (2020) English HDCAM x264 AAC By Full4Movies torrent
The Father (2020) English HDCAM x264 AAC By Full4Movies torrent
One Night in Miami (2020) English HDCAM x264 AAC By Full4Movies torrent
It Snows in Benidorm (2020) 720p HDCAM [Hindi-Sub] x264 1XBET torrent

ETTV Recommended Foreign
Back.to.the.Wharf.2020.WEBRip.x264.AAC.720p-Mkvking torrent
Jurassic Shark (2012) 720p BluRay x264 [Dual Audio] [Hindi DD 2.0 - English 5.1] Exclusive By -=!Dr.STAR!=- torrent
Express Raja (2016) HDRip UnCut 1080p [Hindi DD 2.0 – Telugu 2.0] x264 AAC ESub By Full4Movies torrent
Yu Pui Tsuen III (1996) UNRATED 720p BluRay x264 Eng Subs [Dual Audio] [Hindi DD 2.0 - Chinese 2.0] Exclusive By -=!Dr.STAR!=- torrent
Set Play 2020 720p Korean HDRip H264 BONE torrent
The.Day.I.Died.Unclosed.Case.2020.HDRip.720p.Korean.x264.AAC-Mkvking torrent

ETTV Recommended Misc
ZZ Top - Six Pack (3CD) (1987) [FLAC] (Fixed) [FLAC] [DJ] torrent
Billboard Hot 100 Singles Chart (16-January-2021) Mp3 320kbps [PMEDIA] ⭐️ torrent
Stan Getz - Our Favourites (2021) Mp3 320kbps [PMEDIA] ⭐️ torrent
KT Tunstall - Drastic Fantastic (Ultimate Edition) (2021) Mp3 320kbps [PMEDIA] ⭐️ torrent
Bob Dylan - Another Side Of Bob Dylan (1964) (PBTHAL LP 24-96) [FLAC] vtwin88cube torrent
Various Artists - Gospel Blues (2021) Mp3 320kbps [PMEDIA] ⭐️ torrent


Download Torrent "Voces (2020) ITA-SPA Ac3 5.1 WebRip 1080p H264 [ArMor]"

IMDB Details
Description:

N/A

Genre:

Documentary

Download Torrent (Magnet)
Download Torrent (File)

Seeds: 114
Leechers: 27

Uploaded by:
ArMor


Category:
Movies > HD 1080p (Great for large screens)


Details
Title:Voces (2020) ITA-SPA Ac3 5.1 WebRip 1080p H264 [ArMor]
Description:








Prima data di uscita: 24 luglio 2020 (Spagna)
Genere Horror , Thriller
Anno 2020
Regista: Ángel Gómez Hernández
Sceneggiatura: Santiago Díaz
Casa di produzione: RTVE
Produttori: Guillermo Sempere, Juan Moreno
Durata 97 Min



Rodolfo Sancho, Belén Fabra, Lucas Blas, Ana Fernández, Ramón Barea, Nerea Barros, Beatriz Arjona, Viti Suárez, Peter Van Randen, Rosa Álvarez



Daniel e Sara hanno un figlio di nove anni, Eric, e si sono appena trasferiti in una nuova casa senza sapere che i vicini la chiamano "la casa delle voci".



Daniel y Sara tienen un hijo de 9 años, Eric, y acaban de mudarse a un nuevo hogar sin saber que la propiedad es conocida como "la casa de las voces". Eric es el primero en descubrir los extraños sonidos que se ocultan tras cada puerta.

 










General
Unique ID                                : 221954318963449884613099840321415391160 (0xA6FAD8CF9A808FE7BA012EA6782DA7B8)
Complete name                            : Voces (2020) ITA-SPA Ac3 5.1 WebRip 1080p H264 [ArMor].mkv
Format                                   : Matroska
Format version                           : Version 4
File size                                : 4.01 GiB
Duration                                 : 1 h 38 min
Overall bit rate                         : 5 831 kb/s
Encoded date                             : UTC 2020-11-29 06:59:01
Writing application                      : mkvmerge v15.0.0 ('Duel with the Devil') 64-bit
Writing library                          : libebml v1.3.5 + libmatroska v1.4.5 / Lavf58.29.100

Video
ID                                       : 1
Format                                   : AVC
Format/Info                              : Advanced Video Codec
Format profile                           : [email protected]
Format settings                          : CABAC / 4 Ref Frames
Format settings, CABAC                   : Yes
Format settings, Reference frames        : 4 frames
Codec ID                                 : V_MPEG4/ISO/AVC
Duration                                 : 1 h 38 min
Bit rate                                 : 5 000 kb/s
Width                                    : 1 920 pixels
Height                                   : 804 pixels
Display aspect ratio                     : 2.40:1
Frame rate mode                          : Constant
Frame rate                               : 24.000 FPS
Color space                              : YUV
Chroma subsampling                       : 4:2:0
Bit depth                                : 8 bits
Scan type                                : Progressive
Bits/(Pixel*Frame)                       : 0.135
Stream size                              : 3.39 GiB (85%)
Writing library                          : x264 core 157 r2935 545de2f
Encoding settings                        : cabac=1 / ref=2 / deblock=1:0:0 / analyse=0x1:0x111 / me=hex / subme=6 / psy=1 / psy_rd=1.00:0.00 / mixed_ref=1 / me_range=16 / chroma_me=1 / trellis=1 / 8x8dct=0 / cqm=0 / deadzone=21,11 / fast_pskip=1 / chroma_qp_offset=-2 / threads=18 / lookahead_threads=3 / sliced_threads=0 / nr=0 / decimate=1 / interlaced=0 / bluray_compat=0 / constrained_intra=0 / bframes=3 / b_pyramid=2 / b_adapt=1 / b_bias=0 / direct=1 / weightb=1 / open_gop=0 / weightp=1 / keyint=240 / keyint_min=24 / scenecut=40 / intra_refresh=0 / rc_lookahead=30 / rc=abr / mbtree=1 / bitrate=5000 / ratetol=1.0 / qcomp=0.60 / qpmin=0 / qpmax=69 / qpstep=4 / vbv_maxrate=20000 / vbv_bufsize=25000 / nal_hrd=none / filler=0 / ip_ratio=1.40 / aq=1:1.00
Default                                  : Yes
Forced                                   : No
Color range                              : Limited
Color primaries                          : BT.709
Transfer characteristics                 : BT.709
Matrix coefficients                      : BT.709

Audio #1
ID                                       : 2
Format                                   : AC-3
Format/Info                              : Audio Coding 3
Commercial name                          : Dolby Digital
Codec ID                                 : A_AC3
Duration                                 : 1 h 38 min
Bit rate mode                            : Constant
Bit rate                                 : 448 kb/s
Channel(s)                               : 6 channels
Channel layout                           : L R C LFE Ls Rs
Sampling rate                            : 48.0 kHz
Frame rate                               : 31.250 FPS (1536 SPF)
Compression mode                         : Lossy
Stream size                              : 316 MiB (8%)
Title                                    : WEBDL EAC3
Language                                 : Italian
Service kind                             : Complete Main
Default                                  : Yes
Forced                                   : No

Audio #2
ID                                       : 3
Format                                   : AC-3
Format/Info                              : Audio Coding 3
Commercial name                          : Dolby Digital
Codec ID                                 : A_AC3
Duration                                 : 1 h 38 min
Bit rate mode                            : Constant
Bit rate                                 : 448 kb/s
Channel(s)                               : 6 channels
Channel layout                           : L R C LFE Ls Rs
Sampling rate                            : 48.0 kHz
Frame rate                               : 31.250 FPS (1536 SPF)
Compression mode                         : Lossy
Stream size                              : 316 MiB (8%)
Title                                    : EAC3
Language                                 : Spanish
Service kind                             : Complete Main
Default                                  : No
Forced                                   : No




Category:Movies > HD 1080p
Lang:Italian  Italian
Total Size:4.01 GB
Info Hash:1bf118987778187d4818d77e2e251e0ff9645df4
Added By:ArMor
Date Added:30-11-2020 19:59:26

  

Files

File List: 
 File Size
4564578594jhtedtyfnbcxvfh.jpg85.04 kB
Voces (2020) ITA-SPA Ac3 5.1 WebRip 1080p H264 [ArMor].mkv4.01 GB
Voces.2020.ITA-SPA.WEBDL.1080p_ita.srt44.87 kB
Voces.2020.ITA-SPA.WEBDL.1080p_ita_forced.srt390.00 B



Comments

There are currently no comments. Be the first one to write something !