City of dreams Snake Eyes G.I. Joe Origins 2021 the suicide squad 2021 jolt 2021 old 2021 The Tomorrow War 2021 Hindi 2021 marvel week aftermath 2021 A Quiet Place Part II 2021 The North Water S01E04 aew money heist  fast and furious 9 hindi Space Jam A New Legacy 2021 American horror stories  game of thrones titanic mimi 2160p ted lasso  malayalam  proper The Forever Purge 2021   American Horror Stories S01E05 Escape Room Tournament of Champions 2021 Dave s02e09 f9 suicide squad 2021 Below Deck Mediterranean s06e07 beats 1 F9 2021 the suicide squad Blood Red Sky 2021 Pig 2021 old evo wwe Hitmans Wifes Bodyguard 2021 suicide squad  Stillwater 2021 dc week hindi The Bachelorette S17E09 black widow 0 the green knight thittam irandu  The Green Knight 2021 fast and furious 9  ddr Monsters at Work s01e06 dial 100 Midnight in the Switchgrass 2021 The Real Housewives of Beverly Hills S11E11 Stillwater  Rick and Morty S05E07 jungle cruise Motherland Fort Salem s02e07 Big Brother s23e12 Snake Eyes 2021 Free Guy 2021 ettv ita loki forged in fire the flash brazzers hungama 2 rick and morty 2021 hindi  infinite 2021 Jungle Cruise 2021 Luca 2021 Wrath of Man 2021 snake eyes  suicide squad 2 Jungle Cruise hindi Fast and Furious Black Widow 2021 free guy Cruella 2021 The Good Fight S05E07 evil tamil xxx Forged in Fire S08E32 
Warning! Use a V.P.N when Downloading Torrents!
Your IP Address is . Location
Your Internet Provider can see when you download torrents! Hide your IP Address with a V.P.N
ETTV warns: You should use V.P.N to hide your torrenting. HIDE ME NOW
ETTV Recommended TV Shows
American.Horror.Stories.S01E05.720p.WEB.H264-GGWP[ettv] torrent
iCarly.2021.S01E10.1080p.WEB.H264-GGWP[ettv] torrent
Departure.S02E05.1080p.WEB.h264-KOGi[ettv] torrent
Olympic.Highlights.with.Kevin.Hart.and.Snoop.Dogg.S01E06.1080p.WEB.h264-KOGi[ettv] torrent
Hart.to.Heart.S01E01.720p.WEB.h264-KOGi[ettv] torrent
Obama.In.Pursuit.of.a.More.Perfect.Union.S01E03.720p.WEB.h264-KOGi[ettv] torrent

ETTV Recommended SD
Mount.Adams.2021.HDRip.XviD.AC3-EVO torrent
The.Bay.Of.Silence.2020.BRRip.XviD.AC3-EVO torrent
Roadrunner.A.Film.About.Anthony.Bourdain.2021.HDRip.XviD.AC3-EVO torrent
The.Suicide.Squad.2021. 720p .X264-(ETTV) -Beats⭐.mkv torrent

ETTV Recommended HD
Seance.2021.1080p.BRRip.DD5.1.X.264-EVO torrent
The.Misfits.2021.1080p.BRRip.DD5.1.X.264-EVO torrent
On.The.Trail.Of.UFOs-Dark.Sky.2021.1080p.WEBRip.x264.An0mal1 torrent
The.Suicide.Squad.2021. 1080P. Web-X264- Evo- (ETTV) -Beats⭐ torrent

ETTV Recommended UHD
IT.2017.BDRip.2160p.UHD.HDR.Eng.TrueHD.DD5.1.gerald99 torrent
It.Chapter.Two.2019.BDRip.2160p.UHD.HDR10+.Eng.TrueHD.DD5.1.gerald99 torrent
Batman.the.Long.Halloween.2021.2 Pack.WEBRips.2160p.UHD.HDR.Eng.DD5.1.gerald99 torrent
Basic.Instinct.1992.BDRip.2160p.UHD.HDR.Eng.DTS-HD.MA.DD5.1.gerald99 torrent

ETTV Recommended Cam
Escape Room: Tournament of Champions (2021) 720p CAMRip [Hindi-Sub] x264 1XBET torrent
Snake.Eyes.2021.720p.HDCAM.SLOTSLIGHTS.mkv torrent
Off.the.Rails.2021.720p.HDCAM.SLOTSLIGHTS.mkv torrent

ETTV Recommended Foreign
F9.2021.SPANiSH.1080p.AMZN.WEB-DL.x264-dem3nt3 torrent
Jungle Cruise (2021) Disney - FullHD 1080p.H264 Ita Eng AC3 5.1 Multisub - realDMDJ torrent
Colors.1988.UNRATED.1080p.BluRay.H264-Dual.YG⭐ torrent
Mr.Jones.2019.WEBRip.x264-Dual.YG⭐ torrent
One.Second.Champion.2020.CHINESE.720p.BluRay.x264.AAC-Mkvking torrent
CCTV.2021.720p.Korean.HDRip.H264.AAC-Mkvking torrent

ETTV Recommended Misc
Bri Steves - TBH (ETTV)   R&B Playlist Mp3~320   kbps~ Beats⭐ torrent
Today's Indie Rock (ETTV)  Playlist Mp3~320  kbps~ Beats⭐ torrent
Deep Purple - Greatest Hits (PBTHAL 24-96 FLAC) vtwin88cube torrent
LadyFace Our Summer Is Coming Pop (2021) (ETTV) Playlist Mp3~320 kbps~ Beats⭐ torrent
Ty Segall  Harmonizer Garage Rock (ETTV)  Playlist Mp3~320   kbps~ Beats⭐ torrent
LION BABE - Rainbow Child  RnB, Soul (ETTV)  Playlist Mp3~320   kbps~ Beats⭐ torrent


Download Torrent "Hello World (2019) ITA-JAP Ac3 5.1 BDRip 1080p H264 [ArMor]"

IMDB Details
Description:

A man travels in time from the year 2027 to relive his school years and to correct a bad decision.

Genre:

Animation, Comedy, Drama, Family, Romance, Sci-Fi

Download Torrent (Magnet)
Download Torrent (File)

Seeds: 54
Leechers: 33

Uploaded by:
ArMor


Category:
Anime > Movies


Details
Title:Hello World (2019) ITA-JAP Ac3 5.1 BDRip 1080p H264 [ArMor]
Description:








Regista: Tomohiko Itô
Genere: Animazione
Anno: 2019
Paese: Giappone
Durata: 97 min
Distribuzione: Koch Media



Haruka Fukuhara ... Misuzu Kadenokouji (voice)
Minami Hamabe Minami Hamabe ... Ruri Ichigyou (voice)
Takumi Kitamura Takumi Kitamura ... Naomi Katagaki (voice)
Minako Kotobuki Minako Kotobuki ... Yiyi Xu (voice)
Takehito Koyasu Takehito Koyasu ... Kouji Senko (voice)
Rie Kugimiya Rie Kugimiya ... Crow (voice)
Tôri Matsuzaka Tôri Matsuzaka ... Naomi Katagaki (voice)



Hello World, film diretto da Tomohiko Itô, è un anime con protagonista Naomi Katagaki, un giovane liceale di Kyoto appassionato di lettura che un giorno incappa in un uomo apparso dal nulla in biblioteca che può vedere solo lui. L'uomo è lo stesso Naomi adulto, venuto dal futuro per compiere un'importante missione. Nel 2027 il governo giapponese preserva l'architettura e le bellezze naturali grazie all'impiego di alcuni droni, che archiviano tutti i dati raccolti in un macchina nota come Alltale. È grazie a questa tecnologia che il Naomi adulto è tornano indietro nel tempo di dieci anni per salvare la sua fidanzata, Ruri, da un incidente in un festival di fuochi d'artificio che l'ha mandata in coma.



A man travels in time from the year 2027 to relive his school years and to correct a bad decision.

 










General
Unique ID                                : 176369936478137502999139227903295367377 (0x84AF9D3BE7145C389A84EDE774BA28D1)
Complete name                            : Hello World (2019) ITA-JAP Ac3 5.1 BDRip 1080p H264 [ArMor].mkv
Format                                   : Matroska
Format version                           : Version 4
File size                                : 3.95 GiB
Duration                                 : 1 h 37 min
Overall bit rate                         : 5 793 kb/s
Encoded date                             : UTC 2021-01-01 21:41:40
Writing application                      : mkvmerge v15.0.0 ('Duel with the Devil') 64-bit
Writing library                          : libebml v1.3.5 + libmatroska v1.4.5 / Lavf58.29.100

Video
ID                                       : 1
Format                                   : AVC
Format/Info                              : Advanced Video Codec
Format profile                           : [email protected]
Format settings                          : CABAC / 4 Ref Frames
Format settings, CABAC                   : Yes
Format settings, Reference frames        : 4 frames
Codec ID                                 : V_MPEG4/ISO/AVC
Duration                                 : 1 h 37 min
Bit rate                                 : 5 000 kb/s
Width                                    : 1 920 pixels
Height                                   : 1 080 pixels
Display aspect ratio                     : 16:9
Frame rate mode                          : Constant
Frame rate                               : 23.976 (24000/1001) FPS
Color space                              : YUV
Chroma subsampling                       : 4:2:0
Bit depth                                : 8 bits
Scan type                                : Progressive
Bits/(Pixel*Frame)                       : 0.101
Stream size                              : 3.34 GiB (84%)
Writing library                          : x264 core 157 r2935 545de2f
Encoding settings                        : cabac=1 / ref=2 / deblock=1:0:0 / analyse=0x1:0x111 / me=hex / subme=6 / psy=1 / psy_rd=1.00:0.00 / mixed_ref=1 / me_range=16 / chroma_me=1 / trellis=1 / 8x8dct=0 / cqm=0 / deadzone=21,11 / fast_pskip=1 / chroma_qp_offset=-2 / threads=12 / lookahead_threads=2 / sliced_threads=0 / nr=0 / decimate=1 / interlaced=0 / bluray_compat=0 / constrained_intra=0 / bframes=3 / b_pyramid=2 / b_adapt=1 / b_bias=0 / direct=1 / weightb=1 / open_gop=0 / weightp=1 / keyint=240 / keyint_min=24 / scenecut=40 / intra_refresh=0 / rc_lookahead=30 / rc=abr / mbtree=1 / bitrate=5000 / ratetol=1.0 / qcomp=0.60 / qpmin=0 / qpmax=69 / qpstep=4 / vbv_maxrate=50000 / vbv_bufsize=62500 / nal_hrd=none / filler=0 / ip_ratio=1.40 / aq=1:1.00
Default                                  : Yes
Forced                                   : No
Color range                              : Limited
Color primaries                          : BT.709
Transfer characteristics                 : BT.709
Matrix coefficients                      : BT.709

Audio #1
ID                                       : 2
Format                                   : AC-3
Format/Info                              : Audio Coding 3
Commercial name                          : Dolby Digital
Codec ID                                 : A_AC3
Duration                                 : 1 h 37 min
Bit rate mode                            : Constant
Bit rate                                 : 448 kb/s
Channel(s)                               : 6 channels
Channel layout                           : L R C LFE Ls Rs
Sampling rate                            : 48.0 kHz
Frame rate                               : 31.250 FPS (1536 SPF)
Compression mode                         : Lossy
Stream size                              : 313 MiB (8%)
Title                                    : DTS
Language                                 : Italian
Service kind                             : Complete Main
Default                                  : Yes
Forced                                   : No

Audio #2
ID                                       : 3
Format                                   : AC-3
Format/Info                              : Audio Coding 3
Commercial name                          : Dolby Digital
Codec ID                                 : A_AC3
Duration                                 : 1 h 37 min
Bit rate mode                            : Constant
Bit rate                                 : 448 kb/s
Channel(s)                               : 6 channels
Channel layout                           : L R C LFE Ls Rs
Sampling rate                            : 48.0 kHz
Frame rate                               : 31.250 FPS (1536 SPF)
Compression mode                         : Lossy
Stream size                              : 313 MiB (8%)
Title                                    : Surround
Language                                 : Japanese
Service kind                             : Complete Main
Default                                  : No
Forced                                   : No





Category:Anime > Movies
Lang:Italian  Italian
Total Size:3.95 GB
Info Hash:d63b944be3f231380880bfd499c3d793d611e071
Added By:ArMor
Date Added:02-01-2021 15:29:45

  

Files

File List: 
 File Size
cvccssara32216697808uhkljhgch.jpg161.97 kB
Hello World (2019) ITA-JAP Ac3 5.1 BDRip 1080p H264 [ArMor].mkv3.95 GB
Hello.World.2019.ITA-JAP.Bluray.1080p_ita.srt85.36 kB
Hello.World.2019.ITA-JAP.Bluray.1080p_ita_forced.srt11.99 kB



Comments

There are currently no comments. Be the first one to write something !