the stand wandavision Fatale 2020 Tenet 2020 Real Time with Bill Maher S19E01 legends Monster Hunter 2020 SEAL Team S04E05 The Marksman 2021 Wonder Woman 1984 2020 bhoomi Superstore S06E05 S.W.A.T. S04E07 Prodigal Son S02E01 tamil  evo ddr disenchantment outside the wire gold rush Redemption Day 2021 Servant s02e01 wwe rq.mp4 malayalam Master the expanse One Night in Miami... 2021 tandav master 2021  Last Man Standing S09E03 Soul 2020 Greenland 2020 Synchronic 2020 Chicago Fire S09E03 tamil 2021 WandaVision S01E01 wanda vision shark tank s12e10 MacGyver S05E05 Locked Down 2021 Hindi etrg news of the world News of the World 2020 the power the great Indian kitchen Gold Rush S11E12 Chicago P.D. S08E03 monster hunter ettv The Stand S01E05 gullak A Discovery of Witches S02E02 shadow in the cloud 2020 master tamil yts Law and Order SVU S22E05 hindi 2021 wanda ita Magnum P.I. S03E05 promising young woman 2020 Night Stalker The Hunt for a Serial Killer S01E01 WandaVision s01e02 ethd The Croods A New Age 2020 outside the wire 2021 Gold Rush White Water S04E08 tribhanga xxx your honor s01e06 etmovies 
Warning! Use a VPN When Downloading Torrents!
Your IP Address is 3.236.156.34. Location United States
Your Internet Provider can see when you download torrents! Hide your IP Address with a VPN
ETTV warns: You should use VPN to hide your torrenting. HIDE ME NOW
ETTV Recommended TV Shows
Call.Me.Kat.S01E03.720p.WEB.H264-CAKES torrent
Law.and.Order.SVU.S22E05.720p.HDTV.x264-SYNCOPY torrent
Mr.Mayor.S01E03.720p.HDTV.x264-SYNCOPY torrent
Private.Eyes.S04E09.720p.HDTV.x264-SYNCOPY torrent
Forged.in.Fire.S08E09.720p.WEB.h264-BAE torrent
Dickinson.S02E04.720p.WEB.H264-GGWP torrent
WWE Friday Night SmackDown 2021 01 15 HDTV x264-NWCHD [TJET] torrent
WWE 205 Live 2021 01 15 720p Hi WEB h264-HEEL [TJET] torrent

ETTV Recommended SD
Curse.of.Aurore.2020.HDRip.XviD.AC3-EVO torrent
Battle of the V-1 1958 torrent
Outside.the.Wire.2021.HDRip.XviD.AC3-EVO torrent
The.Ultimate.Playlist.of.Noise.2021.HDRip.XviD.AC3-EVO torrent

ETTV Recommended HD
The Mummy (2017)Mp-4 1080p 6ch[DSD] torrent
Body.of.Water.2020.HDRip.XviD.AC3-EVO torrent
Todd (2021) 720p English HDRip x264 AAC By Full4Movies torrent
Lost.Girls.and.Love.Hotels.2020.BRRip.XviD.AC3-EVO torrent

ETTV Recommended UHD
We.Can.Be.Heroes.2020.4K.MULTI.2160p.HDR.WEB..DDP.5.1.HEVC-DDR.mkv torrent
Horizon.Line.2020.2160p.AMZN.WEB.DDP5.1.HDR.HEVC-DDR.mkv torrent
The.Empty.Man.2021.2160p.AMZN.WEB.DDP5.1.HDR.HEVC-DDR.mkv torrent
News.of.the.World.2021.2160p.AMZN.WEB.DDP5.1.HDR.HEVC-DDR.mkv torrent
One.Night.in.Miami.2020.4K.MULTI.2160p.HDR.WEB.EAC3..5.1.HEVC§-DDR.mkv torrent
Promising.Young.Woman.2021.2160p.AMZN.WEB.DDP5.1.HDR.HEVC-DDR.mkv torrent

ETTV Recommended Cam
The Rescue (2020) English HDCAM x264 AAC By Full4Movies torrent
The Father (2020) English HDCAM x264 AAC By Full4Movies torrent
One Night in Miami (2020) English HDCAM x264 AAC By Full4Movies torrent
It Snows in Benidorm (2020) 720p HDCAM [Hindi-Sub] x264 1XBET torrent

ETTV Recommended Foreign
Back.to.the.Wharf.2020.WEBRip.x264.AAC.720p-Mkvking torrent
Jurassic Shark (2012) 720p BluRay x264 [Dual Audio] [Hindi DD 2.0 - English 5.1] Exclusive By -=!Dr.STAR!=- torrent
Express Raja (2016) HDRip UnCut 1080p [Hindi DD 2.0 – Telugu 2.0] x264 AAC ESub By Full4Movies torrent
Yu Pui Tsuen III (1996) UNRATED 720p BluRay x264 Eng Subs [Dual Audio] [Hindi DD 2.0 - Chinese 2.0] Exclusive By -=!Dr.STAR!=- torrent
Set Play 2020 720p Korean HDRip H264 BONE torrent
The.Day.I.Died.Unclosed.Case.2020.HDRip.720p.Korean.x264.AAC-Mkvking torrent

ETTV Recommended Misc
[electronic, indie-pop, post-punk] (2020) VA – No Cover : A Carpark Covers Comp [FLAC] [DarkAngie] torrent
ZZ Top - Six Pack (3CD) (1987) [FLAC] (Fixed) [FLAC] [DJ] torrent
Billboard Hot 100 Singles Chart (16-January-2021) Mp3 320kbps [PMEDIA] ⭐️ torrent
Stan Getz - Our Favourites (2021) Mp3 320kbps [PMEDIA] ⭐️ torrent
KT Tunstall - Drastic Fantastic (Ultimate Edition) (2021) Mp3 320kbps [PMEDIA] ⭐️ torrent
Bob Dylan - Another Side Of Bob Dylan (1964) (PBTHAL LP 24-96) [FLAC] vtwin88cube torrent


Download Torrent "Emmylou Harris - Roses In The Snow (1980) (PBTHAL LP 24-96) [FLAC] vtwin88c..."

IMDB Details
Description:

N/A

Genre:

N/A

Download Torrent (Magnet)
Download Torrent (File)

Seeds: 69
Leechers: 29

Uploaded by:
vtwin88cube


Category:
Music > FLAC


Details
Title:Emmylou Harris - Roses In The Snow (1980) (PBTHAL LP 24-96) [FLAC] vtwin88c...
Description:
Emmylou Harris
Roses In The Snow (1980)
FLAC LOSSLESS 24bit-96kHz
PBTHAL Vinyl Rip


allmusic.com...

One-time singing partner of Gram Parsons who became an enduring force in progressive country by the end of the 1970s.
Blessed with a crystalline voice, a remarkable gift for phrasing, and a restless creative spirit, few artists had as profound an impact on contemporary music as Emmylou Harris. She traveled a singular artistic path, proudly carrying the torch of "cosmic American music" passed down by her mentor, Gram Parsons, which made a profound mark on both country and rock. Beginning as a folk singer in New York City, Harris released her first album in 1970, only to see it disappear with the bankruptcy of her record label. But a year later, she was playing a folk club in Washington D.C. when Chris Hillman saw her perform, and he recommended her to his former bandmate Gram Parsons.

Combining acoustic bluegrass with traditional Appalachian melodies (and tossing one contemporary tune, Paul Simon's "The Boxer," into the mix), Roses in the Snow ranks among Emmylou Harris' riskiest -- and most satisfying -- gambits.


foobar2000 1.4.3 / Dynamic Range Meter 1.1.1
log date: 2021-01-07 18:11:50

--------------------------------------------------------------------------------
Analyzed: Emmylou Harris / Roses In The Snow
--------------------------------------------------------------------------------

DR         Peak         RMS     Duration Track
--------------------------------------------------------------------------------
DR11      -4.44 dB   -18.03 dB      2:37 01-Roses In The Snow
DR13      -0.70 dB   -18.49 dB      3:32 02-Wayfaring Stranger
DR13      -1.80 dB   -18.16 dB      3:12 03-Green Pastures
DR11      -3.25 dB   -17.16 dB      3:21 04-The Boxer
DR12      -3.08 dB   -17.66 dB      3:26 05-Darkest Hour Is Just Before Dawn
DR11      -4.29 dB   -17.64 dB      2:21 06-I'll Go Stepping Too
DR12      -2.55 dB   -17.06 dB      3:01 07-You're Learning
DR12      -1.56 dB   -16.25 dB      2:11 08-Jordan
DR14      -3.56 dB   -20.29 dB      3:47 09-Miss The Mississippi And You
DR12      -3.75 dB   -18.39 dB      3:16 10-Gold Watch And Chain

Number of tracks:  10
Official DR value: DR12

Samplerate:        96000 Hz
Channels:          2
Bits per sample:   24
Bitrate:           2625 kbps
Codec:             FLAC





Support the artists...
buy it if you like it!


Thanks for Seeding!
Cheers! ;)
Category:Music > FLAC
Lang:Unknown/NA
Total Size:577 MB
Info Hash:4b2e1de34051fd47642960a9f30383f935c625fa
Added By:vtwin88cube
Date Added:08-01-2021 04:22:36

Files

File List: 
 File Size
00.-Emmylou Harris - Roses In The Snow.m3u289.00 B
01.-Roses In The Snow.flac50 MB
02.-Wayfaring Stranger.flac65 MB
03.-Green Pastures.flac62 MB
04.-The Boxer.flac63 MB
05.-Darkest Hour Is Just Before Dawn.flac63 MB
06.-I'll Go Stepping Too.flac45 MB
07.-You're Learning.flac57 MB
08.-Jordan.flac42 MB
09.-Miss The Mississippi And You.flac69 MB
10.-Gold Watch And Chain.flac61 MB
DR12.txt1.37 kB
folder.jpg187.43 kB
lineage.txt499.00 B



Comments

There are currently no comments. Be the first one to write something !