the expanse marvel week Prodigal Son s02e02 WandaVision S01E01 ncis American gods s03e02 master 2021 The Rookie S03E03 Locked Down 2021 Fatale 2020 The Stand S01E05 the expanse s05e08 nancy drew s02e01  Shadow in the Cloud 2020 rq.mp4 ettv etrg Riverdale ethd yts Promising Young Woman 2020 wwe WandaVision S01E02 Xxx Tenet 2020 Redemption Day 2021 The Challenge S36E06 The Curse of Oak Island S08E11 Wonder Woman 1984 2020 The Real Housewives of Orange County S15E15 Synchronic 2020 Hindi 2021 monster hunter A Discovery of Witches s02e02 lupin 2021 s01e03 Soul 2020 The Conners s03e08 etmovies Horizon Line 2020 Riverdale S05E01 the croods a new age 2020 the stand tandav tamil 0 evo aew Your Honor S01E07 proper ufc Bull s05e06 hindi 9-1-1 s04e01 malayalam ita 9-1-1 Lone Star S02E01 outside the wire 2021 FBI Most Wanted s02e04 The Good Doctor S04E07 The Marksman 2021 News of the World 2020 Run Hide Fight 2020 master  fbi NCIS s18e04 ddr wandavision 2160p Catfish The TV Show s08e32 The Resident S04E02 monster hunter 2020 NCIS s18e05 the stand s01e06 
Warning! Use a VPN When Downloading Torrents!
Your IP Address is 3.239.236.140. Location United States
Your Internet Provider can see when you download torrents! Hide your IP Address with a VPN
ETTV warns: You should use VPN to hide your torrenting. HIDE ME NOW
ETTV Recommended TV Shows
Call.Your.Mother.S01E02.720p.HDTV.x264-SYNCOPY torrent
Nancy.Drew.2019.S02E01.720p.HDTV.x264-SYNCOPY torrent
Riverdale.US.S05E01.720p.HDTV.x264-SYNCOPY torrent
The.Conners.S03E08.720p.HDTV.x264-SYNCOPY torrent
The.Daily.Show.2021.01.20.1080p.WEB.H264-JEBAITED torrent
The.Real.Housewives.of.Orange.County.S15E15.Reunion.Pt1.720p.HDTV.x264-CRiMSON torrent
The.Real.Housewives.of.Salt.Lake.City.S01E11.All.Bets.Are.Off.720p.HDTV.x264-CRiMSON torrent
The.Stand.2020.S01E06.720p.WEB.H264-CAKES torrent

ETTV Recommended SD
The Burnt Orange Heresy.2020.BDRip.XviD.AC3-EVO torrent
The.Adventure.Of.A.R.I.My.Robot.Friend.2020.BDRip.XviD.AC3-EVO torrent
Spiral.2020.BRRip.XviD.AC3-EVO torrent
Batman.Soul.of.the.Dragon.2021.BRRip.XviD.AC3-EVO torrent

ETTV Recommended HD
Body.of.Water.2020.HDRip.XviD.AC3-EVO torrent
Todd (2021) 720p English HDRip x264 AAC By Full4Movies torrent
Lost.Girls.and.Love.Hotels.2020.BRRip.XviD.AC3-EVO torrent
Elektra (2005) [Jennifer Garner] 1080p H264 DolbyD 5.1 ūüíé nickarad torrent

ETTV Recommended UHD
Police.2020.HDR.2160p.WEB.DDP5.1.HEVC-DDR.mkv torrent
The.Climb.2020.HDR.2160p.WEB.DDP5.1.HEVC-DDR.mkv torrent
2012.2009.Multi.UHD.BluRay.2160p.HDR.HEVC.TrueHD.Atmos.7.1-DDR.mkv torrent
Master Z Ip Man Legacy 2018 4K MULTI 2160p HDR WEB AC3 HEVC-DDR.mkv torrent
Money.Monster.2016.4K.MULTI.2160p.HDR.WEB.DTS-HDMA.5.1.HEVC-DDR.mkv torrent
Superbad.2007.Theatrical.Cut.4K.MULTI.2160p.HDR.WEB.AC3.HEVC-DDR.mkv torrent

ETTV Recommended Cam
The Rescue (2020) English HDCAM x264 AAC By Full4Movies torrent
The Father (2020) English HDCAM x264 AAC By Full4Movies torrent
One Night in Miami (2020) English HDCAM x264 AAC By Full4Movies torrent
It Snows in Benidorm (2020) 720p HDCAM [Hindi-Sub] x264 1XBET torrent

ETTV Recommended Foreign
Yu Pui Tsuen III (1996) UNRATED 720p BluRay x264 Eng Subs [Dual Audio] [Hindi DD 2.0 - Chinese 2.0] Exclusive By -=!Dr.STAR!=- torrent
Set Play 2020 720p Korean HDRip H264 BONE torrent
The.Day.I.Died.Unclosed.Case.2020.HDRip.720p.Korean.x264.AAC-Mkvking torrent
Your Honor (2020) 720p S-01 Ep-[01-12] HDRip [Hindi + Tamil + Telugu + Mal] x264 AAC ESub By Full4Movies torrent
Bending The Rules (2012) 720p BluRay x264 Eng Subs [Dual Audio] [Hindi DD 2.0 - English 5.1] Exclusive By -=!Dr.STAR!=- torrent
The Marksman (2021) English HDCAM x264 AAC By Full4Movies torrent

ETTV Recommended Misc
100 Tracks Chill Vibes (ETTV)  Playlist Spotify ~320  kbps Beats‚≠ź torrent
Billboard Top 50 EDM Love Songs of All Time (2021) Mp3 320kbps [PMEDIA] ‚≠źÔłŹ torrent
Jimmy Page & Robert Plant - No Quarter (1994) (PBTHAL LP 24-96) [FLAC] vtwin88cube torrent
Billboard Hot 100 Singles Chart (23-January-2021) Mp3 320kbps [PMEDIA] ‚≠źÔłŹ torrent
[ambient, jazz] (2021) Patricia Brennan - Maquishti [FLAC] [DarkAngie] torrent
[psychedelic rock] (2021) Miss Lava - Doom Machine [FLAC] [DarkAngie] torrent


Download Torrent "Todd (2021) 720p English HDRip x264 AAC By Full4Movies"

IMDB Details
Description:

N/A

Genre:

N/A

Download Torrent (Magnet)
Download Torrent (File)

Seeds: 68
Leechers: 32

Uploaded by:
full4movies


Category:
Movies > HD 720p (Great for large screens)


Details
Title:Todd (2021) 720p English HDRip x264 AAC By Full4Movies
Description:


Visit Us = https://full4movies.xyz/



General
Complete name                  : Todd (2021) 720p English HDRip x264 AAC By Full4Movies.mkv
Format                         : Matroska
Format version                 : Version 4
File size                      : 796 MiB
Duration                       : 1 h 31 min
Overall bit rate               : 1 214 kb/s
Encoded date                   : UTC 2021-01-11 13:52:24
Writing application            : mkvmerge v8.0.0 ('Til The Day That I Die') 32bit
Writing library                : libebml v1.3.1 + libmatroska v1.4.2

Video
ID                             : 1
Format                         : AVC
Format/Info                    : Advanced Video Codec
Format profile¬† ¬† ¬† ¬† ¬† ¬† ¬† ¬† ¬†: [email protected]
Format settings                : CABAC / 4 Ref Frames
Format settings, CABAC         : Yes
Format settings, Reference fra : 4 frames
Codec ID                       : V_MPEG4/ISO/AVC
Duration                       : 1 h 31 min
Bit rate                       : 1 116 kb/s
Width                          : 1 280 pixels
Height                         : 720 pixels
Display aspect ratio           : 16:9
Frame rate mode                : Variable
Frame rate                     : 23.976 FPS
Color space                    : YUV
Chroma subsampling             : 4:2:0
Bit depth                      : 8 bits
Scan type                      : Progressive
Bits/(Pixel*Frame)             : 0.051
Stream size                    : 731 MiB (92%)
Writing library                : x264 core 157
Default                        : Yes
Forced                         : No

Audio
ID                             : 2
Format                         : AAC LC
Format/Info                    : Advanced Audio Codec Low Complexity
Codec ID                       : A_AAC-2
Duration                       : 1 h 31 min
Bit rate                       : 96.0 kb/s
Channel(s)                     : 2 channels
Channel layout                 : L R
Sampling rate                  : 48.0 kHz
Frame rate                     : 46.875 FPS (1024 SPF)
Compression mode               : Lossy
Stream size                    : 63.0 MiB (8%)
Language                       : English
Default                        : Yes
Forced                         : No

Screen Shoots

Category:Movies > HD 720p
Lang:English  English
Total Size:796 MB
Info Hash:7dc3c7a01f751d286cd2d9d0736c27dbd20b8bde
Added By:full4movies
Date Added:12-01-2021 06:13:17

  

Files

File List: 
 File Size
Todd (2021) 720p English HDRip x264 AAC By Full4Movies.mkv796 MB



Comments

There are currently no comments. Be the first one to write something !