Jumanji Level One 2021 the croods a new age 2020 The Stand S01E06 Locked Down 2021 Horizon Line 2020 yts Monster Hunter 2020 90 Day Fiance S08E08 Charmed S03E01 Blue Bloods S11E05 Walker S01E01 Gold Rush S11E13 Honest Thief 2020 WandaVision S01E03 Greenland 2020 Tamil  Fatale 2020 The Rookie S03E04 ufc Your Honor S01E08 wandavision ufc 257 ddr batwoman hindi FBI S03E04 2160p Redemption Day 2021 news of the world 2020 wwe The Little Things 2021 american gods hindi 2021 Master 2021 malayalam  etmovies xxx master Synchronic 2020 Fate The Winx Saga S01E01 A Discovery of Witches s02e03 Promising Young Woman 2020 ettv monster hunter  WandaVision S01E01 the stand the watch Legacies s03e01 The Watch S01E05 Madam chief Minister The White Tiger 2021 your honor The Marksman 2021 the rookie etrg Run Hide Fight 2020 WandaVision S01E02 fbi outside the wire 2021 Your Honor S01E07 Shadow in the Cloud 2020 Tenet 2020 Batwoman S02E02 rq.mp4 tandav Attack on titan Soul 2020 ethd The Blacklist S08E03 wonder woman 1984 2020 American Gods S03E03 evo the white tiger  
Warning! Use a VPN When Downloading Torrents!
Your IP Address is 3.238.70.175. Location United States
Your Internet Provider can see when you download torrents! Hide your IP Address with a VPN
ETTV warns: You should use VPN to hide your torrenting. HIDE ME NOW
ETTV Recommended TV Shows
UFC.257.Poirier.vs.McGregor.Prelims.720p.HDTV.x264-VERUM torrent
90.Day.Fiance.S08E08.Unsure.and.Insecure.720p.TLC.WEBRip.AAC2.0.x264-BTN torrent
Batwoman.S02E02.720p.HDTV.x264-SYNCOPY torrent
Charmed.2018.S03E01.720p.HDTV.x264-SYNCOPY torrent
FBI.S03E04.720p.HDTV.x264-SYNCOPY torrent
The.Real.Housewives.of.Atlanta.S13E07.The.Jet.Set.and.the.Upset.720p.HDTV.x264-CRiMSON torrent
The.Rookie.S03E04.720p.HDTV.x264-SYNCOPY torrent
The.Watch.S01E05.WEBRip.x264-ION10 torrent

ETTV Recommended SD
Batman.Soul.of.the.Dragon.2021.BRRip.XviD.AC3-EVO torrent
On.Site.2020.HDRip.XviD.AC3-EVO torrent
The.White.Tiger.2021.HDRip.XviD.AC3-EVO torrent
The.Furnace.2020.HDRip.XviD.AC3-EVO torrent

ETTV Recommended HD
Body.of.Water.2020.HDRip.XviD.AC3-EVO torrent
Todd (2021) 720p English HDRip x264 AAC By Full4Movies torrent
Lost.Girls.and.Love.Hotels.2020.BRRip.XviD.AC3-EVO torrent
Elektra (2005) [Jennifer Garner] 1080p H264 DolbyD 5.1 ūüíé nickarad torrent

ETTV Recommended UHD
Police.2020.HDR.2160p.WEB.DDP5.1.HEVC-DDR.mkv torrent
The.Climb.2020.HDR.2160p.WEB.DDP5.1.HEVC-DDR.mkv torrent
2012.2009.Multi.UHD.BluRay.2160p.HDR.HEVC.TrueHD.Atmos.7.1-DDR.mkv torrent
Master Z Ip Man Legacy 2018 4K MULTI 2160p HDR WEB AC3 HEVC-DDR.mkv torrent
Money.Monster.2016.4K.MULTI.2160p.HDR.WEB.DTS-HDMA.5.1.HEVC-DDR.mkv torrent
Superbad.2007.Theatrical.Cut.4K.MULTI.2160p.HDR.WEB.AC3.HEVC-DDR.mkv torrent

ETTV Recommended Cam
The Rescue (2020) English HDCAM x264 AAC By Full4Movies torrent
The Father (2020) English HDCAM x264 AAC By Full4Movies torrent
One Night in Miami (2020) English HDCAM x264 AAC By Full4Movies torrent
It Snows in Benidorm (2020) 720p HDCAM [Hindi-Sub] x264 1XBET torrent

ETTV Recommended Foreign
Yu Pui Tsuen III (1996) UNRATED 720p BluRay x264 Eng Subs [Dual Audio] [Hindi DD 2.0 - Chinese 2.0] Exclusive By -=!Dr.STAR!=- torrent
Set Play 2020 720p Korean HDRip H264 BONE torrent
The.Day.I.Died.Unclosed.Case.2020.HDRip.720p.Korean.x264.AAC-Mkvking torrent
Your Honor (2020) 720p S-01 Ep-[01-12] HDRip [Hindi + Tamil + Telugu + Mal] x264 AAC ESub By Full4Movies torrent
Bending The Rules (2012) 720p BluRay x264 Eng Subs [Dual Audio] [Hindi DD 2.0 - English 5.1] Exclusive By -=!Dr.STAR!=- torrent
The Marksman (2021) English HDCAM x264 AAC By Full4Movies torrent

ETTV Recommended Misc
[psychedelic rock] (2021) Miss Lava - Doom Machine [FLAC] [DarkAngie] torrent
50 Tracks Top Female Artists of 2020 (ETTV)  Playlist Spotify ~320  kbps Beats‚≠ź torrent
50 Tracks Top Male  Artists of 2020 (ETTV)  Playlist Spotify ~320  kbps Beats‚≠ź torrent
Sam Cooke - Eight Classic Albums (4CD) (2013) [FLAC] [DJ] torrent
UB40 - Gold - 2-CD-[MP3-320]-[TFM] torrent
[alternative folk] (2021) Wardruna - Kvitravn [FLAC] [DarkAngie] torrent


Download Torrent "Synchronic (2019) 720p English HDRip x264 AAC By Full4Movie"

IMDB Details
Description:

Two New Orleans paramedics' lives are ripped apart after they encounter a series of horrific deaths linked to a designer drug with bizarre, otherworldly effects.

Genre:

Drama, Horror, Sci-Fi

Download Torrent (Magnet)
Download Torrent (File)

Seeds: 72
Leechers: 25

Uploaded by:
full4movies


Category:
Movies > HD 720p (Great for large screens)


Details
Title:Synchronic (2019) 720p English HDRip x264 AAC By Full4Movie
Description:


Visit Us = https://full4movies.xyz/



General
Complete name                  : Synchronic (2019) 720p English HDRip x264 AAC By Full4Movie.mkv
Format                         : Matroska
Format version                 : Version 4
File size                      : 796 MiB
Duration                       : 1 h 41 min
Overall bit rate               : 1 093 kb/s
Encoded date                   : UTC 2021-01-12 06:29:46
Writing application            : mkvmerge v8.0.0 ('Til The Day That I Die') 32bit
Writing library                : libebml v1.3.1 + libmatroska v1.4.2

Video
ID                             : 1
Format                         : AVC
Format/Info                    : Advanced Video Codec
Format profile¬† ¬† ¬† ¬† ¬† ¬† ¬† ¬† ¬†: [email protected]
Format settings                : CABAC / 4 Ref Frames
Format settings, CABAC         : Yes
Format settings, Reference fra : 4 frames
Codec ID                       : V_MPEG4/ISO/AVC
Duration                       : 1 h 41 min
Bit rate                       : 994 kb/s
Width                          : 1 280 pixels
Height                         : 528 pixels
Display aspect ratio           : 2.40:1
Frame rate mode                : Variable
Frame rate                     : 23.976 FPS
Color space                    : YUV
Chroma subsampling             : 4:2:0
Bit depth                      : 8 bits
Scan type                      : Progressive
Bits/(Pixel*Frame)             : 0.061
Stream size                    : 724 MiB (91%)
Writing library                : x264 core 157
Language                       : English
Default                        : Yes
Forced                         : No

Audio
ID                             : 2
Format                         : AAC LC
Format/Info                    : Advanced Audio Codec Low Complexity
Codec ID                       : A_AAC-2
Duration                       : 1 h 41 min
Bit rate                       : 96.0 kb/s
Channel(s)                     : 2 channels
Channel layout                 : L R
Sampling rate                  : 48.0 kHz
Frame rate                     : 46.875 FPS (1024 SPF)
Compression mode               : Lossy
Stream size                    : 70.1 MiB (9%)
Language                       : English
Default                        : Yes
Forced                         : No

Screen Shoots

Category:Movies > HD 720p
Lang:English  English
Total Size:796 MB
Info Hash:5ad0316bc59a57f43f328d8013ff4d998d13ace7
Added By:full4movies
Date Added:12-01-2021 14:43:02

  

Files

File List: 
 File Size
Synchronic (2019) 720p English HDRip x264 AAC By Full4Movie.mkv796 MB



Comments

There are currently no comments. Be the first one to write something !