Jumanji Level One 2021 the croods a new age 2020 The Stand S01E06 Locked Down 2021 Horizon Line 2020 yts Monster Hunter 2020 90 Day Fiance S08E08 Charmed S03E01 Blue Bloods S11E05 Walker S01E01 Gold Rush S11E13 Honest Thief 2020 WandaVision S01E03 Greenland 2020 Tamil  Fatale 2020 The Rookie S03E04 ufc Your Honor S01E08 wandavision ufc 257 ddr batwoman hindi FBI S03E04 2160p Redemption Day 2021 news of the world 2020 wwe The Little Things 2021 american gods hindi 2021 Master 2021 malayalam  etmovies xxx master Synchronic 2020 Fate The Winx Saga S01E01 A Discovery of Witches s02e03 Promising Young Woman 2020 ettv monster hunter  WandaVision S01E01 the stand the watch Legacies s03e01 The Watch S01E05 Madam chief Minister The White Tiger 2021 your honor The Marksman 2021 the rookie etrg Run Hide Fight 2020 WandaVision S01E02 fbi outside the wire 2021 Your Honor S01E07 Shadow in the Cloud 2020 Tenet 2020 Batwoman S02E02 rq.mp4 tandav Attack on titan Soul 2020 ethd The Blacklist S08E03 wonder woman 1984 2020 American Gods S03E03 evo the white tiger  
Warning! Use a VPN When Downloading Torrents!
Your IP Address is 3.238.70.175. Location United States
Your Internet Provider can see when you download torrents! Hide your IP Address with a VPN
ETTV warns: You should use VPN to hide your torrenting. HIDE ME NOW
ETTV Recommended TV Shows
UFC.257.Poirier.vs.McGregor.Prelims.720p.HDTV.x264-VERUM torrent
90.Day.Fiance.S08E08.Unsure.and.Insecure.720p.TLC.WEBRip.AAC2.0.x264-BTN torrent
Batwoman.S02E02.720p.HDTV.x264-SYNCOPY torrent
Charmed.2018.S03E01.720p.HDTV.x264-SYNCOPY torrent
FBI.S03E04.720p.HDTV.x264-SYNCOPY torrent
The.Real.Housewives.of.Atlanta.S13E07.The.Jet.Set.and.the.Upset.720p.HDTV.x264-CRiMSON torrent
The.Rookie.S03E04.720p.HDTV.x264-SYNCOPY torrent
The.Watch.S01E05.WEBRip.x264-ION10 torrent

ETTV Recommended SD
Batman.Soul.of.the.Dragon.2021.BRRip.XviD.AC3-EVO torrent
On.Site.2020.HDRip.XviD.AC3-EVO torrent
The.White.Tiger.2021.HDRip.XviD.AC3-EVO torrent
The.Furnace.2020.HDRip.XviD.AC3-EVO torrent

ETTV Recommended HD
Body.of.Water.2020.HDRip.XviD.AC3-EVO torrent
Todd (2021) 720p English HDRip x264 AAC By Full4Movies torrent
Lost.Girls.and.Love.Hotels.2020.BRRip.XviD.AC3-EVO torrent
Elektra (2005) [Jennifer Garner] 1080p H264 DolbyD 5.1 ūüíé nickarad torrent

ETTV Recommended UHD
Police.2020.HDR.2160p.WEB.DDP5.1.HEVC-DDR.mkv torrent
The.Climb.2020.HDR.2160p.WEB.DDP5.1.HEVC-DDR.mkv torrent
2012.2009.Multi.UHD.BluRay.2160p.HDR.HEVC.TrueHD.Atmos.7.1-DDR.mkv torrent
Master Z Ip Man Legacy 2018 4K MULTI 2160p HDR WEB AC3 HEVC-DDR.mkv torrent
Money.Monster.2016.4K.MULTI.2160p.HDR.WEB.DTS-HDMA.5.1.HEVC-DDR.mkv torrent
Superbad.2007.Theatrical.Cut.4K.MULTI.2160p.HDR.WEB.AC3.HEVC-DDR.mkv torrent

ETTV Recommended Cam
The Rescue (2020) English HDCAM x264 AAC By Full4Movies torrent
The Father (2020) English HDCAM x264 AAC By Full4Movies torrent
One Night in Miami (2020) English HDCAM x264 AAC By Full4Movies torrent
It Snows in Benidorm (2020) 720p HDCAM [Hindi-Sub] x264 1XBET torrent

ETTV Recommended Foreign
Yu Pui Tsuen III (1996) UNRATED 720p BluRay x264 Eng Subs [Dual Audio] [Hindi DD 2.0 - Chinese 2.0] Exclusive By -=!Dr.STAR!=- torrent
Set Play 2020 720p Korean HDRip H264 BONE torrent
The.Day.I.Died.Unclosed.Case.2020.HDRip.720p.Korean.x264.AAC-Mkvking torrent
Your Honor (2020) 720p S-01 Ep-[01-12] HDRip [Hindi + Tamil + Telugu + Mal] x264 AAC ESub By Full4Movies torrent
Bending The Rules (2012) 720p BluRay x264 Eng Subs [Dual Audio] [Hindi DD 2.0 - English 5.1] Exclusive By -=!Dr.STAR!=- torrent
The Marksman (2021) English HDCAM x264 AAC By Full4Movies torrent

ETTV Recommended Misc
[psychedelic rock] (2021) Miss Lava - Doom Machine [FLAC] [DarkAngie] torrent
50 Tracks Top Female Artists of 2020 (ETTV)  Playlist Spotify ~320  kbps Beats‚≠ź torrent
50 Tracks Top Male  Artists of 2020 (ETTV)  Playlist Spotify ~320  kbps Beats‚≠ź torrent
Sam Cooke - Eight Classic Albums (4CD) (2013) [FLAC] [DJ] torrent
UB40 - Gold - 2-CD-[MP3-320]-[TFM] torrent
[alternative folk] (2021) Wardruna - Kvitravn [FLAC] [DarkAngie] torrent


Download Torrent "Narciso e Boccadoro-Narziss und Goldmund (2020) ITA-GER Ac3 5.1 BDRip 1080p..."

IMDB Details
Description:

N/A

Genre:

N/A

Download Torrent (Magnet)
Download Torrent (File)

Seeds: 129
Leechers: 114

Uploaded by:
ArMor


Category:
Movies > HD 1080p (Great for large screens)


Details
Title:Narciso e Boccadoro-Narziss und Goldmund (2020) ITA-GER Ac3 5.1 BDRip 1080p...
Description:








Regista: Stefan Ruzowitzky
Genere: Drammatico
Anno: 2020
Paese: Germania
Durata: 110 min
Distribuzione: Sony Pictures Releasing



Jannis Niewöhner, Sabin Tambrea, Henriette Confurius, Lukas Bech, Roxane Duran, Georg Friedrich, Matthias Habich, André Hennicke



Narciso e Boccadoro, il film diretto da Stefan Ruzowitzky, racconta una delle storie di amicizia pi√Ļ commoventi della letteratura mondiale, quella tra due uomini molto diversi. Durante i secoli bui, un giovane indisciplinato di nome Boccadoro (Jannis Niew√∂hner) viene mandato da suo padre nel monastero di Mariabronn, convinto di espiare cos√¨ i peccati di sua madre, rea di averli abbandonati. Qui il ragazzo fa la conoscenza di Narciso (Sabin Tambrea), brillante studente del monastero dall'indole pia e distaccata. Tra i due nasce forte legame fatto di rispetto e amicizia, ma nonostante i tentativi di Boccadoro di imitare Narciso nelle sue pratiche ascetiche, il carattere irriverente e impetuoso del primo finisce per creare sempre nuovi problemi.
Certo ormai che la vita nel monastero non corrisponda alla sua idea di libert√†, Boccadoro fugge, intraprendendo un viaggio avventuroso fatto di estasi amorose, pericoli e dolore. La vita di Narciso prosegue nel frattempo sempre all'interno del monastero, nel quale si isola dal mondo trovando conforto nella preghiera e nella meditazione. Ma il loro percorso insieme sembra non essere ancora terminato. Anni pi√Ļ tardi, infatti, la vita rimetter√† i due amici sulla stessa strada, facendoli incontrare in circostanze drammatiche...



Goldmund is to study in the monastery Mariabronn. His father sent him there. There he meets a religious monk named Narcissus. He has subjected himself to a strict life and lives completely ascetically.

 










General
Unique ID                                : 174222387343341489015875785425645032027 (0x831202E307EC119C5D38907E7685525B)
Complete name                            : Narciso e Boccadoro-Narziss und Goldmund (2020) ITA-GER Ac3 5.1 BDRip 1080p H264 [ArMor].mkv
Format                                   : Matroska
Format version                           : Version 4
File size                                : 4.74 GiB
Duration                                 : 1 h 58 min
Overall bit rate                         : 5 743 kb/s
Encoded date                             : UTC 2021-01-11 22:41:04
Writing application                      : mkvmerge v52.0.0 ('Secret For The Mad') 64-bit
Writing library                          : libebml v1.4.1 + libmatroska v1.6.2 / Lavf58.29.100

Video
ID                                       : 1
Format                                   : AVC
Format/Info                              : Advanced Video Codec
Format profile¬† ¬† ¬† ¬† ¬† ¬† ¬† ¬† ¬† ¬† ¬† ¬† ¬† ¬†: [email protected]
Format settings                          : CABAC / 4 Ref Frames
Format settings, CABAC                   : Yes
Format settings, Reference frames        : 4 frames
Codec ID                                 : V_MPEG4/ISO/AVC
Duration                                 : 1 h 58 min
Bit rate                                 : 5 000 kb/s
Width                                    : 1 920 pixels
Height                                   : 804 pixels
Display aspect ratio                     : 2.40:1
Frame rate mode                          : Constant
Frame rate                               : 23.976 (24000/1001) FPS
Color space                              : YUV
Chroma subsampling                       : 4:2:0
Bit depth                                : 8 bits
Scan type                                : Progressive
Bits/(Pixel*Frame)                       : 0.135
Stream size                              : 4.00 GiB (84%)
Writing library                          : x264 core 157 r2935 545de2f
Encoding settings                        : cabac=1 / ref=2 / deblock=1:0:0 / analyse=0x1:0x111 / me=hex / subme=6 / psy=1 / psy_rd=1.00:0.00 / mixed_ref=1 / me_range=16 / chroma_me=1 / trellis=1 / 8x8dct=0 / cqm=0 / deadzone=21,11 / fast_pskip=1 / chroma_qp_offset=-2 / threads=18 / lookahead_threads=3 / sliced_threads=0 / nr=0 / decimate=1 / interlaced=0 / bluray_compat=0 / constrained_intra=0 / bframes=3 / b_pyramid=2 / b_adapt=1 / b_bias=0 / direct=1 / weightb=1 / open_gop=0 / weightp=1 / keyint=240 / keyint_min=24 / scenecut=40 / intra_refresh=0 / rc_lookahead=30 / rc=abr / mbtree=1 / bitrate=5000 / ratetol=1.0 / qcomp=0.60 / qpmin=0 / qpmax=69 / qpstep=4 / vbv_maxrate=50000 / vbv_bufsize=62500 / nal_hrd=none / filler=0 / ip_ratio=1.40 / aq=1:1.00
Default                                  : Yes
Forced                                   : No
Color range                              : Limited
Color primaries                          : BT.709
Transfer characteristics                 : BT.709
Matrix coefficients                      : BT.709

Audio #1
ID                                       : 2
Format                                   : AC-3
Format/Info                              : Audio Coding 3
Commercial name                          : Dolby Digital
Codec ID                                 : A_AC3
Duration                                 : 1 h 58 min
Bit rate mode                            : Constant
Bit rate                                 : 448 kb/s
Channel(s)                               : 6 channels
Channel layout                           : L R C LFE Ls Rs
Sampling rate                            : 48.0 kHz
Frame rate                               : 31.250 FPS (1536 SPF)
Compression mode                         : Lossy
Stream size                              : 379 MiB (8%)
Title                                    : WEBDL
Language                                 : Italian
Service kind                             : Complete Main
Default                                  : Yes
Forced                                   : No

Audio #2
ID                                       : 3
Format                                   : AC-3
Format/Info                              : Audio Coding 3
Commercial name                          : Dolby Digital
Codec ID                                 : A_AC3
Duration                                 : 1 h 58 min
Bit rate mode                            : Constant
Bit rate                                 : 448 kb/s
Channel(s)                               : 6 channels
Channel layout                           : L R C LFE Ls Rs
Sampling rate                            : 48.0 kHz
Frame rate                               : 31.250 FPS (1536 SPF)
Compression mode                         : Lossy
Stream size                              : 379 MiB (8%)
Title                                    : DTS
Language                                 : German
Service kind                             : Complete Main
Default                                  : No
Forced                                   : No





Category:Movies > HD 1080p
Lang:Italian  Italian
Total Size:4.74 GB
Info Hash:2c761496a8651151dc46246ecfd8d325cca65872
Added By:ArMor
Date Added:12-01-2021 16:20:13

  

Files

File List: 
 File Size
bhvvgcvghdfcsrse3q13253564u9678.jpg147.04 kB
Narciso e Boccadoro-Narziss und Goldmund (2020) ITA-GER Ac3 5.1 BDRip 1080p H264 [ArMor].mkv4.74 GB
Narciso.e.Boccadoro.2020.ITA-GER.Bluray.1080p_ita_forced.srt438.00 B



Comments

There are currently no comments. Be the first one to write something !