master master tamil WandaVision S01E01 attack on titan the rookie Monster Hunter hindi 2021 A Discovery of Witches S02E02 Shameless S11E04 Wonder Woman 1984 2020 ita 90 Day Fiance S08E07 hindi Honest Thief 2020 ettv Malayalam NCIS Los Angeles S12E09 Greenland 2020 Shadow in the Cloud 2020 the stand evo NCIS New Orleans S07E07 One Night in Miami... 2021 xxx ethd Promising Young Woman 2020 A Discovery of Witches s02e01 The Croods A New Age 2020 Your Honor S01E07 Tiger S01E02 Family Guy S19E10 Your Honor S01E06 shameless etmovies outside the wire Fatale 2020 Monster Hunter 2020 etrg The Stand S01E05 Horizon Line 2020 Locked Down 2021 yts the great indian kitchen  your honor The Rookie S03E03 Run Hide Fight 2020 Soul 2020 Gold Rush S11E12 american gods  family guy ufc wandavision Magnum P.I. S03E05 rq.mp4 Redemption Day 2021 2160p Batwoman S02E01 The Dry 2021 American Gods S03E02 gold rush Tamil batwoman News of the World 2020 The Marksman 2021 Tenet 2020 The Stand s01e01 Master 2021  Synchronic 2020 outside the wire 2021 ddr the watch s01e04  Tandav WandaVision S01E02 
Warning! Use a VPN When Downloading Torrents!
Your IP Address is 3.236.156.34. Location United States
Your Internet Provider can see when you download torrents! Hide your IP Address with a VPN
ETTV warns: You should use VPN to hide your torrenting. HIDE ME NOW
ETTV Recommended TV Shows
Batwoman.S02E01.720p.HDTV.x264-SYNCOPY torrent
Family.Guy.S19E10.1080p.WEB.H264-CAKES torrent
NCIS.Los.Angeles.S12E09.720p.HDTV.x264-SYNCOPY torrent
NCIS.New.Orleans.S07E07.720p.HDTV.x264-SYNCOPY torrent
The.Circus.S06E02.720p.HDTV.x264-SYNCOPY torrent
The.Real.Housewives.of.Atlanta.S13E06.The.Giving.Peach.720p.HDTV.x264-CRiMSON torrent
The.Rookie.S03E03.720p.HDTV.x264-SYNCOPY torrent
The.Watch.S01E04.WEBRip.x264-ION10 torrent

ETTV Recommended SD
Outside.the.Wire.2021.HDRip.XviD.AC3-EVO torrent
The.Ultimate.Playlist.of.Noise.2021.HDRip.XviD.AC3-EVO torrent
The Burnt Orange Heresy.2020.BDRip.XviD.AC3-EVO torrent
The.Adventure.Of.A.R.I.My.Robot.Friend.2020.BDRip.XviD.AC3-EVO torrent

ETTV Recommended HD
Body.of.Water.2020.HDRip.XviD.AC3-EVO torrent
Todd (2021) 720p English HDRip x264 AAC By Full4Movies torrent
Lost.Girls.and.Love.Hotels.2020.BRRip.XviD.AC3-EVO torrent
Elektra (2005) [Jennifer Garner] 1080p H264 DolbyD 5.1 ūüíé nickarad torrent

ETTV Recommended UHD
The.Empty.Man.2021.2160p.AMZN.WEB.DDP5.1.HDR.HEVC-DDR.mkv torrent
News.of.the.World.2021.2160p.AMZN.WEB.DDP5.1.HDR.HEVC-DDR.mkv torrent
One.Night.in.Miami.2020.4K.MULTI.2160p.HDR.WEB.EAC3..5.1.HEVC§-DDR.mkv torrent
Promising.Young.Woman.2021.2160p.AMZN.WEB.DDP5.1.HDR.HEVC-DDR.mkv torrent
Clear.And.Present.Danger.1994.MULTI..2160p.HDR.BLURAY.TrueHD.5.1.HEVC-DDR.mkv torrent
Weathering With You.2019..USA.UHD.BluRay.2160p.HDR.DTS-HDMA.5.1.HEVC-DDR.mkv torrent

ETTV Recommended Cam
The Rescue (2020) English HDCAM x264 AAC By Full4Movies torrent
The Father (2020) English HDCAM x264 AAC By Full4Movies torrent
One Night in Miami (2020) English HDCAM x264 AAC By Full4Movies torrent
It Snows in Benidorm (2020) 720p HDCAM [Hindi-Sub] x264 1XBET torrent

ETTV Recommended Foreign
Back.to.the.Wharf.2020.WEBRip.x264.AAC.720p-Mkvking torrent
Jurassic Shark (2012) 720p BluRay x264 [Dual Audio] [Hindi DD 2.0 - English 5.1] Exclusive By -=!Dr.STAR!=- torrent
Express Raja (2016) HDRip UnCut 1080p [Hindi DD 2.0 ‚Äď Telugu 2.0] x264 AAC ESub By Full4Movies torrent
Yu Pui Tsuen III (1996) UNRATED 720p BluRay x264 Eng Subs [Dual Audio] [Hindi DD 2.0 - Chinese 2.0] Exclusive By -=!Dr.STAR!=- torrent
Set Play 2020 720p Korean HDRip H264 BONE torrent
The.Day.I.Died.Unclosed.Case.2020.HDRip.720p.Korean.x264.AAC-Mkvking torrent

ETTV Recommended Misc
Billboard Hot 100 Singles Chart (16-January-2021) Mp3 320kbps [PMEDIA] ‚≠źÔłŹ torrent
Stan Getz - Our Favourites (2021) Mp3 320kbps [PMEDIA] ‚≠źÔłŹ torrent
KT Tunstall - Drastic Fantastic (Ultimate Edition) (2021) Mp3 320kbps [PMEDIA] ‚≠źÔłŹ torrent
Bob Dylan - Another Side Of Bob Dylan (1964) (PBTHAL LP 24-96) [FLAC] vtwin88cube torrent
Various Artists - Gospel Blues (2021) Mp3 320kbps [PMEDIA] ‚≠źÔłŹ torrent
VA - New Music Releases Week 02 of 2021 (Mp3 320kbps Songs) [PMEDIA] ‚≠źÔłŹ torrent


Download Torrent "BHOOMI (2021) 720p Tamil TRUE HDRip x264 AC3 (DD 5.1) ESub By Full4Movies"

IMDB Details
Description:

N/A

Genre:

N/A

Download Torrent (Magnet)
Download Torrent (File)

Seeds: 79
Leechers: 26

Uploaded by:
full4movies


Category:
Movies > Bollywood


Details
Title:BHOOMI (2021) 720p Tamil TRUE HDRip x264 AC3 (DD 5.1) ESub By Full4Movies
Description:


Visit Us = https://full4movies.xyz/



General
Complete name                  : BHOOMI (2021) 720p Tamil TRUE HDRip x264 AC3 (DD 5.1) ESub By Full4Movies.mkv
Format                         : Matroska
Format version                 : Version 4
File size                      : 1.33 GiB
Duration                       : 2 h 7 min
Overall bit rate               : 1 488 kb/s
Encoded date                   : UTC 2021-01-14 10:07:24
Writing application            : mkvmerge v8.0.0 ('Til The Day That I Die') 32bit
Writing library                : libebml v1.3.1 + libmatroska v1.4.2

Video
ID                             : 1
Format                         : AVC
Format/Info                    : Advanced Video Codec
Format profile¬† ¬† ¬† ¬† ¬† ¬† ¬† ¬† ¬†: [email protected]
Format settings                : CABAC / 5 Ref Frames
Format settings, CABAC         : Yes
Format settings, Reference fra : 5 frames
Format settings, GOP           : M=4, N=48
Codec ID                       : V_MPEG4/ISO/AVC
Duration                       : 2 h 7 min
Bit rate                       : 1 300 kb/s
Width                          : 1 280 pixels
Height                         : 720 pixels
Display aspect ratio           : 16:9
Frame rate mode                : Constant
Frame rate                     : 24.000 FPS
Color space                    : YUV
Chroma subsampling             : 4:2:0
Bit depth                      : 8 bits
Scan type                      : Progressive
Bits/(Pixel*Frame)             : 0.059
Stream size                    : 1.15 GiB (87%)
Writing library                : x264 core 155 r2917+1 7f1566e
Default                        : Yes
Forced                         : No
Color range                    : Limited
Color primaries                : BT.709
Transfer characteristics       : BT.709
Matrix coefficients            : BT.709

Audio
ID                             : 2
Format                         : E-AC-3
Format/Info                    : Enhanced AC-3
Commercial name                : Dolby Digital Plus
Codec ID                       : A_EAC3
Duration                       : 2 h 7 min
Bit rate mode                  : Constant
Bit rate                       : 192 kb/s
Channel(s)                     : 6 channels
Channel layout                 : L R C LFE Ls Rs
Sampling rate                  : 48.0 kHz
Frame rate                     : 31.250 FPS (1536 SPF)
Compression mode               : Lossy
Stream size                    : 175 MiB (13%)
Language                       : Tamil
Service kind                   : Complete Main
Default                        : Yes
Forced                         : No

Text #1
ID                             : 3
Format                         : UTF-8
Codec ID                       : S_TEXT/UTF8
Codec ID/Info                  : UTF-8 Plain Text
Duration                       : 2 h 2 min
Bit rate                       : 74 b/s
Count of elements              : 1750
Stream size                    : 66.9 KiB (0%)
Language                       : English
Default                        : No
Forced                         : No

Screen Shoots

Category:Movies > Bollywood
Lang:Tamil  Tamil
Total Size:1.33 GB
Info Hash:0f2569f3a73b40537670cfb31e0eda568e53c874
Added By:full4movies
Date Added:14-01-2021 11:13:28

  

Files

File List: 
 File Size
BHOOMI (2021) 720p Tamil TRUE HDRip x264 AC3 (DD 5.1) ESub By Full4Movies.mkv1.33 GB



Comments

There are currently no comments. Be the first one to write something !