Fear of Rain 2021 Tom and Jerry 2021 Coming to America 1988 Free Guy 2021 Monster Hunter 2020 ethd The Mauritanian 2021 xxx Wrong Turn 2021 For All Mankind Raya and the last dragon Chaos Walking 2021 I Care a Lot 2021 chaos walking etmovies The United States vs. Billie Holiday 2021 Magnum P.I. S03E10 ita etrg Land 2021 Hindi Superman and Lois S01E02 ufc hindi 2021 News of the World 2020 The Blacklist S08E09 Blood of Zeus s01e06 Blue Bloods S11E08 rq.mp4 malayalam  Wonder Woman 1984 2020 evo The Marksman 2021 UFC 259 ettv Coming 2 America The walking dead ddr Gold Rush S11E19 the blacklist Resident Alien S01E06 The Walking Dead S10E17 WandaVision S01E01 Boss Level 2021 A Discovery of Witches s02e09 tamil  The Walking Dead S10E18 lupin 2021 s01e04 gold rush Debris S01E01 wanda Vision Silk Road 2021 Nomadland 2020 WandaVision S01E09 Cosmic Sin 2021 Wandavision s01e08 wandavision Raya and the Last Dragon 2021 MacGyver s05e10 1 Wandavision s01e07 coming to america WandaVision s01e02 Young Sheldon S04E10 0 Judas and the Black Messiah 2021 yts Crisis 2021 The Little Things 2021 Tenet 2020 Raya Coming 2 America 2021 clarice s01e04 
Warning! Use a VPN When Downloading Torrents!
Your IP Address is 3.239.158.36. Location United States
Your Internet Provider can see when you download torrents! Hide your IP Address with a VPN
ETTV warns: You should use VPN to hide your torrenting. HIDE ME NOW
ETTV Recommended TV Shows
UFC 259 | BŇāachowicz vs. Adesanya | Main Event Fights | PPV 720p-BB ūüĎä [A1Rip] torrent
UFC 259 | Preliminary Fight | WEB-DL-BB [A1Rip] torrent
Magnum.P.I.2018.S03E10.720p.HDTV.x264-SYNCOPY torrent
Gold.Rush.S11E20.Attack.or.Retreat.720p.WEBRip.x264-CAFFEiNE torrent
American.Gods.S03E08.720p.WEB.H264-GGEZ torrent
Ancient.Aliens.S16E09.720p.WEB.h264-BAE torrent
Pennyworth.S02E05.720p.WEB.H264-GLHF torrent
Shameless.US.S11E07.WEBRip.x264-ION10 torrent
Harrow.S03E05.Ut.Biberent.Quoniam.Esse.Nollent.720p.WEB.h264-WEBTUBE torrent
WandaVision.S01.XviD-ZMNT torrent

ETTV Recommended SD
Cosmic.Sin.2021.HDRip.XviD.AC3-EVO torrent
Shadowland.2021.HDRip.XviD.AC3-EVO torrent
Coming.2.America.2021.HDRip.XviD.AC3-EVO torrent
Dreamcatcher.2021.HDRip.XviD.AC3-EVO torrent

ETTV Recommended HD
Tombstone (1993) [Kurt Russell] 1080p H264 DolbyD 5.1 ūüíé nickarad torrent
Escape from New York (1981) [Kurt Russell] 1080p H264 DolbyD 5.1 ūüíé nickarad torrent
A Way Station 2021 720p Korean HDRip H264 BONE torrent
Music (2021) FullHD 1080p.H264 Ita Eng AC3 5.1 Sub Ita Eng - ODS torrent

ETTV Recommended UHD
Master Z Ip Man Legacy 2018 4K MULTI 2160p HDR WEB AC3 HEVC-DDR.mkv torrent
Superbad.2007.Theatrical.Cut.4K.MULTI.2160p.HDR.WEB.AC3.HEVC-DDR.mkv torrent
Blade.1998.4K.HDR.2160p.BDRip Ita Eng x265-NAHOM torrent
Animated.Movies.5.Pack.BDRips.2160.UHD.HDR.Eng.TrueHD.DDPlus.DD5.1.gerald99 torrent
(REQ).The.Croods.2.&.District.9.BDRips.2160p.UHD.HDR.Eng.TrueHD.DD5.1.gerald99 torrent
Transformers.Pack.BDRips.2160p.UHD.HDR.Eng.TrueHD.DD5.1.gerald99 torrent

ETTV Recommended Cam
Tom and Jerry (2021) English HDCAM x264 AAC By Full4Movies torrent
The World to Come (2021) New English HDCAM x264 AAC By Full4Movies torrent
Weekenders (2021) New English HDCAM x264 AAC By Full4Movies torrent
Long Story Short (2021) English HDCAM x264 AAC By Full4Movies torrent

ETTV Recommended Foreign
The.Mad.Monk.2021.WEB-DL.1080p.H264-Mkvking torrent
The Broken Hearts Gallery 2020 x264 720p Esub BluRay English Hindi Telugu Tamil THE GOPI SAHI torrent
Unhinged 2020 x264 720p Esub BluRay Dual Audio English Hindi THE GOPI SAHI torrent
Troop Zero 2020 x264 720p WebHD Esub Dual Audio English Hindi THE GOPI SAHI torrent
Three Sisters 2021 720p Korean HDRip H264 BONE torrent
Shock Wave 2 2020 1080p Chinese HDRip HC HEVC H265 BONE torrent

ETTV Recommended Misc
80s Summer Rock. 90 Tracks Hits (ETTV)  Playlist Spotify ~320  kbps Beats‚≠ź torrent
100 Tracks 80s Party (ETTV)  Playlist Spotify  320  kbps Beats‚≠ź torrent
Kings of Leon - Only By The Night (2008) Flac torrent
[alternative folk, ambient, world] (2021) Field Works - Cedars [FLAC] [DarkAngie] torrent
VA - New Music Releases Week 09 of 2021 (Mp3 320kbps Songs) [PMEDIA] ‚≠źÔłŹ torrent
Various Artists - Women\'s Day (2021) Mp3 320kbps [PMEDIA] ‚≠źÔłŹ torrent


Download Torrent "The Marksman (2021) English HDCAM x264 AAC By Full4Movies"

IMDB Details
Description:

A rancher on the Arizona border becomes the unlikely defender of a young Mexican boy desperately fleeing the cartel assassins who've pursued him into the U.S.

Genre:

Action, Thriller

Download Torrent (Magnet)
Download Torrent (File)

Seeds: 382
Leechers: 85

Uploaded by:
full4movies


Category:
Movies > CAM/TS


Details
Title:The Marksman (2021) English HDCAM x264 AAC By Full4Movies
Description:


Visit Us = https://full4movies.xyz/



General
Complete name                  : The Marksman (2021) English HDCAM x264 AAC By Full4Movies.mkv
Format                         : Matroska
Format version                 : Version 4
File size                      : 846 MiB
Duration                       : 1 h 41 min
Overall bit rate               : 1 163 kb/s
Encoded date                   : UTC 2021-01-16 12:04:19
Writing application            : mkvmerge v8.0.0 ('Til The Day That I Die') 32bit
Writing library                : libebml v1.3.1 + libmatroska v1.4.2

Video
ID                             : 1
Format                         : AVC
Format/Info                    : Advanced Video Codec
Format profile¬† ¬† ¬† ¬† ¬† ¬† ¬† ¬† ¬†: [email protected]
Format settings                : CABAC / 5 Ref Frames
Format settings, CABAC         : Yes
Format settings, Reference fra : 5 frames
Codec ID                       : V_MPEG4/ISO/AVC
Duration                       : 1 h 41 min
Bit rate                       : 1 064 kb/s
Width                          : 720 pixels
Height                         : 304 pixels
Display aspect ratio           : 2.40:1
Frame rate mode                : Variable
Frame rate                     : 30.000 FPS
Color space                    : YUV
Chroma subsampling             : 4:2:0
Bit depth                      : 8 bits
Scan type                      : Progressive
Bits/(Pixel*Frame)             : 0.162
Stream size                    : 774 MiB (91%)
Writing library                : x264 core 157
Default                        : Yes
Forced                         : No

Audio
ID                             : 2
Format                         : AAC LC
Format/Info                    : Advanced Audio Codec Low Complexity
Codec ID                       : A_AAC-2
Duration                       : 1 h 41 min
Bit rate                       : 96.0 kb/s
Channel(s)                     : 2 channels
Channel layout                 : L R
Sampling rate                  : 48.0 kHz
Frame rate                     : 46.875 FPS (1024 SPF)
Compression mode               : Lossy
Stream size                    : 70.1 MiB (8%)
Language                       : English
Default                        : Yes
Forced                         : No

Screen Shoots

Category:Movies > CAM/TS
Lang:English  English
Total Size:846 MB
Info Hash:67457d49ee24a562c81004881965b841f55e24bf
Added By:full4movies
Date Added:18-01-2021 04:31:28

  

Files

File List: 
 File Size
The Marksman (2021) English HDCAM x264 AAC By Full4Movies.mkv846 MB



Comments

There are currently no comments. Be the first one to write something !