City of dreams Snake Eyes G.I. Joe Origins 2021 the suicide squad 2021 jolt 2021 old 2021 The Tomorrow War 2021 Hindi 2021 marvel week aftermath 2021 A Quiet Place Part II 2021 The North Water S01E04 aew money heist  fast and furious 9 hindi Space Jam A New Legacy 2021 American horror stories  game of thrones titanic mimi 2160p ted lasso  malayalam  proper The Forever Purge 2021   American Horror Stories S01E05 Escape Room Tournament of Champions 2021 Dave s02e09 f9 suicide squad 2021 Below Deck Mediterranean s06e07 beats 1 F9 2021 the suicide squad Blood Red Sky 2021 Pig 2021 old evo wwe Hitmans Wifes Bodyguard 2021 suicide squad  Stillwater 2021 dc week hindi The Bachelorette S17E09 black widow 0 the green knight thittam irandu  The Green Knight 2021 fast and furious 9  ddr Monsters at Work s01e06 dial 100 Midnight in the Switchgrass 2021 The Real Housewives of Beverly Hills S11E11 Stillwater  Rick and Morty S05E07 jungle cruise Motherland Fort Salem s02e07 Big Brother s23e12 Snake Eyes 2021 Free Guy 2021 ettv ita loki forged in fire the flash brazzers hungama 2 rick and morty 2021 hindi  infinite 2021 Jungle Cruise 2021 Luca 2021 Wrath of Man 2021 snake eyes  suicide squad 2 Jungle Cruise hindi Fast and Furious Black Widow 2021 free guy Cruella 2021 The Good Fight S05E07 evil tamil xxx Forged in Fire S08E32 
Warning! Use a V.P.N when Downloading Torrents!
Your IP Address is . Location
Your Internet Provider can see when you download torrents! Hide your IP Address with a V.P.N
ETTV warns: You should use V.P.N to hide your torrenting. HIDE ME NOW
ETTV Recommended TV Shows
American.Horror.Stories.S01E05.720p.WEB.H264-GGWP[ettv] torrent
iCarly.2021.S01E10.1080p.WEB.H264-GGWP[ettv] torrent
Departure.S02E05.1080p.WEB.h264-KOGi[ettv] torrent
Olympic.Highlights.with.Kevin.Hart.and.Snoop.Dogg.S01E06.1080p.WEB.h264-KOGi[ettv] torrent
Hart.to.Heart.S01E01.720p.WEB.h264-KOGi[ettv] torrent
Obama.In.Pursuit.of.a.More.Perfect.Union.S01E03.720p.WEB.h264-KOGi[ettv] torrent

ETTV Recommended SD
Mount.Adams.2021.HDRip.XviD.AC3-EVO torrent
The.Bay.Of.Silence.2020.BRRip.XviD.AC3-EVO torrent
Roadrunner.A.Film.About.Anthony.Bourdain.2021.HDRip.XviD.AC3-EVO torrent
The.Suicide.Squad.2021. 720p .X264-(ETTV) -Beats⭐.mkv torrent

ETTV Recommended HD
Seance.2021.1080p.BRRip.DD5.1.X.264-EVO torrent
The.Misfits.2021.1080p.BRRip.DD5.1.X.264-EVO torrent
On.The.Trail.Of.UFOs-Dark.Sky.2021.1080p.WEBRip.x264.An0mal1 torrent
The.Suicide.Squad.2021. 1080P. Web-X264- Evo- (ETTV) -Beats⭐ torrent

ETTV Recommended UHD
IT.2017.BDRip.2160p.UHD.HDR.Eng.TrueHD.DD5.1.gerald99 torrent
It.Chapter.Two.2019.BDRip.2160p.UHD.HDR10+.Eng.TrueHD.DD5.1.gerald99 torrent
Batman.the.Long.Halloween.2021.2 Pack.WEBRips.2160p.UHD.HDR.Eng.DD5.1.gerald99 torrent
Basic.Instinct.1992.BDRip.2160p.UHD.HDR.Eng.DTS-HD.MA.DD5.1.gerald99 torrent

ETTV Recommended Cam
Escape Room: Tournament of Champions (2021) 720p CAMRip [Hindi-Sub] x264 1XBET torrent
Snake.Eyes.2021.720p.HDCAM.SLOTSLIGHTS.mkv torrent
Off.the.Rails.2021.720p.HDCAM.SLOTSLIGHTS.mkv torrent

ETTV Recommended Foreign
F9.2021.SPANiSH.1080p.AMZN.WEB-DL.x264-dem3nt3 torrent
Jungle Cruise (2021) Disney - FullHD 1080p.H264 Ita Eng AC3 5.1 Multisub - realDMDJ torrent
Colors.1988.UNRATED.1080p.BluRay.H264-Dual.YG⭐ torrent
Mr.Jones.2019.WEBRip.x264-Dual.YG⭐ torrent
One.Second.Champion.2020.CHINESE.720p.BluRay.x264.AAC-Mkvking torrent
CCTV.2021.720p.Korean.HDRip.H264.AAC-Mkvking torrent

ETTV Recommended Misc
Bri Steves - TBH (ETTV)   R&B Playlist Mp3~320   kbps~ Beats⭐ torrent
Today's Indie Rock (ETTV)  Playlist Mp3~320  kbps~ Beats⭐ torrent
Deep Purple - Greatest Hits (PBTHAL 24-96 FLAC) vtwin88cube torrent
LadyFace Our Summer Is Coming Pop (2021) (ETTV) Playlist Mp3~320 kbps~ Beats⭐ torrent
Ty Segall  Harmonizer Garage Rock (ETTV)  Playlist Mp3~320   kbps~ Beats⭐ torrent
LION BABE - Rainbow Child  RnB, Soul (ETTV)  Playlist Mp3~320   kbps~ Beats⭐ torrent


Download Torrent "Ascendant (2021) 720p HDCAM English New Movie x264 AAC By Full4Movies"

IMDB Details
Description:

A young environmentalist wakes, trapped, kidnapped in the elevator of a super high-rise building at the mercy of her tormentors

Genre:

Fantasy, Mystery, Sci-Fi, Thriller

Download Torrent (Magnet)
Download Torrent (File)

Seeds: 155
Leechers: 26

Uploaded by:
full4movies


Category:
Movies > CAM/TS


Details
Title:Ascendant (2021) 720p HDCAM English New Movie x264 AAC By Full4Movies
Description:


Visit Us = https://www.full4movies.biz/



General
Complete name                  : Ascendant (2021) 720p HDCAM English New Movie x264 AAC By Full4Movies.mkv
Format                         : Matroska
Format version                 : Version 4 / Version 2
File size                      : 846 MiB
Duration                       : 1 h 32 min
Overall bit rate               : 1 274 kb/s
Encoded date                   : UTC 2021-04-17 05:28:13
Writing application            : mkvmerge v8.3.0 ('Over the Horizon') 64bit
Writing library                : libebml v1.3.1 + libmatroska v1.4.2
Attachments                    : cropped-full4movies-Logo.png

Video
ID                             : 1
Format                         : AVC
Format/Info                    : Advanced Video Codec
Format profile                 : [email protected]
Format settings, CABAC         : Yes
Format settings, RefFrames     : 5 frames
Codec ID                       : V_MPEG4/ISO/AVC
Duration                       : 1 h 32 min
Bit rate                       : 1 175 kb/s
Width                          : 720 pixels
Height                         : 320 pixels
Display aspect ratio           : 2.35:1
Frame rate mode                : Variable
Frame rate                     : 30.000 FPS
Color space                    : YUV
Chroma subsampling             : 4:2:0
Bit depth                      : 8 bits
Scan type                      : Progressive
Bits/(Pixel*Frame)             : 0.170
Stream size                    : 780 MiB (92%)
Writing library                : x264 core 157
Default                        : Yes
Forced                         : No

Audio
ID                             : 2
Format                         : AAC
Format/Info                    : Advanced Audio Codec
Format profile                 : LC
Codec ID                       : A_AAC
Duration                       : 1 h 32 min
Bit rate                       : 96.0 kb/s
Channel(s)                     : 2 channels
Channel positions              : Front: L R
Sampling rate                  : 48.0 kHz
Frame rate                     : 46.875 FPS (1024 SPF)
Compression mode               : Lossy
Stream size                    : 64.0 MiB (8%)
Language                       : English
Default                        : Yes
Forced                         : No

Screen Shoots





Category:Movies > CAM/TS
Lang:English  English
Total Size:846 MB
Info Hash:6a836c6929ec0fc913876ec5963225a93512c4bb
Added By:full4movies
Date Added:17-04-2021 09:06:00

  

Files

File List: 
 File Size
Ascendant (2021) 720p HDCAM English New Movie x264 AAC By Full4Movies.mkv846 MB



Comments

<< Previous      Next >>
1 - 1

[Report] Posted: 26-06-2021 at 15:08:18
DopeWaffles


Hardcoded text with pop up ads throughout - unwatchable - don't waste your time

1 - 1
<< Previous      Next >>