Nobody 2021 ettv Stowaway 2021 f1 SEAL Team S04E13 manifest Chicago Fire S09E13 vitthal teedi invincible Magnum P.I. S03E16 evo rq.mp4 wrath of man Station 19 S04E13 fear the walking dead The Unholy 2021 Rebel s01e04 The Virtuoso 2021 Jupiters Legacy S01E01 without remorse Legacies s03e11 Tom Clancys Without Remorse 2021 Young Sheldon s04e17 nascar young sheldon Mortal Kombat 2021 The Mitchells vs. The Machines 2021 Jupiter's Legacy The World Ends with You s01e05 voyagers 2021 jupiters legacy Godzilla vs. Kong 2021 Manifest S03E07 In the Earth 2021 Things Heard and Seen 2021 wwe ddr ethd Malayalam  Jupiters Legacy S01E03 Clarice S01E08 Queen of the South S05E05 Zack Snyders Justice League 2021 Raya and the Last Dragon 2021 the blacklist proper etmovies The Flash s07e08 hindi 2021 Mom S08E17 Jupiters Legacy S01E02 The Blacklist s08e16 yts Greys Anatomy S17E14 The Marksman 2021 The Mosquito Coast S01E03 xxx tom clancy's without remorse 2021 Blue Bloods S11E14 Chicago P.D. S08E13 ita 0 hindi mortal kombat lily demure the Handmaids tale s04e04 etrg Justice Society World War II 2021 Walker S01E10 Wrath of Man 2021 S.W.A.T. S04E15 tamil Manifest S03E08 
Warning! Use a VPN When Downloading Torrents!
Your IP Address is 3.238.130.97. Location United States
Your Internet Provider can see when you download torrents! Hide your IP Address with a VPN
ETTV warns: You should use VPN to hide your torrenting. HIDE ME NOW
ETTV Recommended TV Shows
WWE Friday Night SmackDown 2021 05 07 Throwback Edition HDTV x264-NWCHD [TJET] torrent
WWE 205 Live 2021 05 07 720p Hi WEB h264-HEEL [TJET] torrent
Blue.Bloods.S11E14.720p.HDTV.x264-SYNCOPY torrent
Charmed.2018.S03E11.720p.HDTV.x264-SYNCOPY torrent
Dynasty.2017.S04E01.720p.HDTV.x264-SYNCOPY torrent
Magnum.P.I.2018.S03E16.720p.WEB.H264-GGEZ torrent
Real.Time.with.Bill.Maher.S19E15.720p.WEB.H264-CAKES torrent
Shark.Tank.S12E23.720p.WEB.h264-KOGi torrent
The.Blacklist.S08E16.720p.HDTV.x264-SYNCOPY torrent
Van.Helsing.S05E04.720p.WEB.H264-GGEZ torrent

ETTV Recommended SD
In.the.Earth.2021.HDRip.XviD.AC3-EVO torrent
The.Paper.Tigers.2021.HDRip.XviD.AC3-EVO torrent
The.Dry.2021.BRRip.XviD.AC3-EVO torrent
Wander.2020.BRRip.XviD.AC3-EVO torrent

ETTV Recommended HD
Judas and the Black Messiah (2021) [LaKeith Stanfield] 1080p H264 DolbyD 5.1 ⛦ ©️nickarad torrent
San Andreas 2D & 3D (2015)[BDRip & BDRemux 1080p x 264 by alE13 AC3/DTS][Multi Audio & Multi Subtitles][Eng] torrent
The House With A Clock In Its Walls - Fantasy 2018 Eng Rus Multi-Subs 1080p [H264-mp4] torrent
88 Minutes (2007) [Al Pacino] 1080p H264 DolbyD 5.1 ⛦ ©️nickarad torrent

ETTV Recommended UHD
Donnie.Darko.2001.Theatrical.Cut.BDRip.2160p.UHD.HDR.Eng.DTS-HD.MA.DD5.1.gerald99 torrent
The.Irishman.2019.2160p.Upscaled.Eng.DDP5.1.gerald99 torrent
Speed.1994.BDRip.2160p.UHD.HDR.Eng.DTS-HD.MA.DD5.1.gerald99 torrent
The.Princess.Bride.1987.BDRip.2160p.UHD.HDR10Plus.Eng.DTS-HD.MA.DD5.1.gerald99 torrent
Fear.and.Loathing.in.Las.Vegas.1998.2160p.Upscaled.Open.Matte.Eng.DTS.DD5.1.gerald99 torrent
Big.Fish.2003.BDRip.2160p.UHD.HDR.Multilang.TrueHD.DD5.1.gerald99 torrent

ETTV Recommended Cam
Long Story Short (2021) English HDCAM x264 AAC By Full4Movies torrent
Ascendant (2021) 720p HDCAM English New Movie x264 AAC By Full4Movies torrent
Mortal Kombat (2021) 720p HDCAM English New Movie x264 AAC By Full4Movies torrent
Voyagers (2021) 720p HDCAM English New Movie x264 AAC By Full4Movies torrent

ETTV Recommended Foreign
Iris (1987) UNCUT 720p DVDRip x264 [Dual Audio] [Hindi DD 2.0 - Dutch 2.0] Exclusive By -=!Dr.STAR!=- torrent
Asuraguru (2021) HDRip 720p Malayalam (Org) + Tamil (DD5.1) 1.1GB  ESub[MB] torrent
Stand By Me Doraemon 1 And 2 2014-2020 720p.BluRay x264 Mkvking torrent
Mortal.Kombat.2021.SPANiSH.2160p.HMAX.WEB-DL.DDP5.1.Atmos.HDR.HEVC-dem3nt3 torrent
Without.Remorse.Senza.Rimorso.Di.Tom.Clancy.2021.iTALiAN.MULTi.UHD.HDR.WEB.x265-MeM.mkv torrent
The Legend of Hei 2019 CHINESE 720p BluRay HEVC x265-RMTeam  torrent

ETTV Recommended Misc
[rock] (2021) Greta Van Fleet - The Battle at Garden's Gate [FLAC] [DarkAngie] torrent
[new wave, ska] (2021) The Selecter - Too Much Pressure [Deluxe Edition] [FLAC] [DarkAngie] torrent
[rock] (2021) Silver Synthetic - Silver Synthetic [FLAC] [DarkAngie] torrent
TikTok Trending Top 50 Singles Chart (07-May-2021) Mp3 320kbps [PMEDIA] ⭐️ torrent
The Official UK Top 100 Singles Chart (07-May-2021) Mp3 320kbps [PMEDIA] ⭐️ torrent
50 Tracks Alt NOW (ETTV)  Playlist Spotify Mp3~320  kbps Beats⭐ torrent


Download Torrent "Batwoman S02E12 Initiate Self-Destruct 1080p AMZN WEBrip x265 DDP5.1 D0ct0r..."

IMDB Details
Description:

Batwoman seeks justice for Gotham City.

Genre:

Action, Adventure, Crime

Download Torrent (Magnet)
Download Torrent (File)

Seeds: 275
Leechers: 50

Uploaded by:
D0ct0rLew


Category:
TV > HEVC/x265 (Super High Quality, Small size, high CPU usage)


Details
Title:Batwoman S02E12 Initiate Self-Destruct 1080p AMZN WEBrip x265 DDP5.1 D0ct0r...
Description:






Media Information

General
Unique ID                                : 23917823901135009291037518927913729710 (0x11FE67C36AC44D92B83CBE726BF2BEAE)
Complete name                            : Batwoman S02E12 Initiate Self-Destruct 1080p AMZN WEBrip x265 DDP5.1 D0ct0rLew[SEV].mkv
Format                                   : Matroska
Format version                           : Version 4
File size                                : 1.09 GiB
Duration                                 : 42 min 14 s
Overall bit rate                         : 3 710 kb/s
Encoded date                             : UTC 2021-05-03 19:03:58
Writing application                      : mkvmerge v56.1.0 ('My Friend') 64-bit
Writing library                          : libebml v1.4.2 + libmatroska v1.6.4

Video
ID                                       : 1
Format                                   : HEVC
Format/Info                              : High Efficiency Video Coding
Format profile                           : Main [email protected]@Main
Codec ID                                 : V_MPEGH/ISO/HEVC
Duration                                 : 42 min 14 s
Bit rate                                 : 3 068 kb/s
Width                                    : 1 920 pixels
Height                                   : 960 pixels
Display aspect ratio                     : 2.000
Frame rate mode                          : Constant
Frame rate                               : 23.976 (24000/1001) FPS
Color space                              : YUV
Chroma subsampling                       : 4:2:0
Bit depth                                : 10 bits
Bits/(Pixel*Frame)                       : 0.069
Stream size                              : 927 MiB (83%)
Writing library                          : x265 3.5+9+14-6c69ed37d:[Windows][GCC 10.2.0][64 bit] 10bit
Encoding settings                        : cpuid=1111039 / frame-threads=5 / numa-pools=32 / wpp / no-pmode / no-pme / no-psnr / no-ssim / log-level=2 / input-csp=1 / input-res=1920x960 / interlace=0 / total-frames=60757 / level-idc=0 / high-tier=1 / uhd-bd=0 / ref=4 / no-allow-non-conformance / no-repeat-headers / annexb / no-aud / no-hrd / info / hash=0 / no-temporal-layers / open-gop / min-keyint=23 / keyint=250 / gop-lookahead=0 / bframes=16 / b-adapt=2 / b-pyramid / bframe-bias=0 / rc-lookahead=90 / lookahead-slices=4 / scenecut=40 / hist-scenecut=0 / radl=0 / no-splice / no-intra-refresh / ctu=64 / min-cu-size=8 / no-rect / no-amp / max-tu-size=32 / tu-inter-depth=4 / tu-intra-depth=4 / limit-tu=0 / rdoq-level=2 / dynamic-rd=0.00 / no-ssim-rd / signhide / no-tskip / nr-intra=0 / nr-inter=0 / no-constrained-intra / no-strong-intra-smoothing / max-merge=5 / limit-refs=0 / limit-modes / me=3 / subme=7 / merange=92 / temporal-mvp / no-frame-dup / no-hme / weightp / no-weightb / no-analyze-src-pics / deblock=0:0 / sao / no-sao-non-deblock / rd=4 / selective-sao=4 / no-early-skip / rskip / no-fast-intra / no-tskip-fast / no-cu-lossless / no-b-intra / no-splitrd-skip / rdpenalty=0 / psy-rd=1.50 / psy-rdoq=1.00 / no-rd-refine / no-lossless / cbqpoffs=0 / crqpoffs=0 / rc=crf / crf=19.1 / qcomp=0.60 / qpstep=4 / stats-write=0 / stats-read=0 / ipratio=1.40 / pbratio=1.30 / aq-mode=3 / aq-strength=1.11 / cutree / zone-count=0 / no-strict-cbr / qg-size=32 / no-rc-grain / qpmax=69 / qpmin=0 / no-const-vbv / sar=0 / overscan=0 / videoformat=5 / range=0 / colorprim=1 / transfer=1 / colormatrix=1 / chromaloc=0 / display-window=0 / cll=0,0 / min-luma=0 / max-luma=1023 / log2-max-poc-lsb=8 / vui-timing-info / vui-hrd-info / slices=1 / no-opt-qp-pps / no-opt-ref-list-length-pps / no-multi-pass-opt-rps / scenecut-bias=0.05 / hist-threshold=0.03 / no-opt-cu-delta-qp / no-aq-motion / no-hdr10 / no-hdr10-opt / no-dhdr10-opt / no-idr-recovery-sei / analysis-reuse-level=0 / analysis-save-reuse-level=0 / analysis-load-reuse-level=0 / scale-factor=0 / refine-intra=0 / refine-inter=0 / refine-mv=1 / refine-ctu-distortion=0 / no-limit-sao / ctu-info=0 / no-lowpass-dct / refine-analysis-type=0 / copy-pic=1 / max-ausize-factor=1.0 / no-dynamic-refine / no-single-sei / no-hevc-aq / no-svt / no-field / qp-adaptation-range=1.00 / scenecut-aware-qp=0conformance-window-offsets / right=0 / bottom=0 / decoder-max-rate=0 / no-vbv-live-multi-pass
Language                                 : English
Default                                  : Yes
Forced                                   : No
Color range                              : Limited
Color primaries                          : BT.709
Transfer characteristics                 : BT.709
Matrix coefficients                      : BT.709

Audio
ID                                       : 2
Format                                   : E-AC-3
Format/Info                              : Enhanced AC-3
Commercial name                          : Dolby Digital Plus
Codec ID                                 : A_EAC3
Duration                                 : 42 min 14 s
Bit rate mode                            : Constant
Bit rate                                 : 640 kb/s
Channel(s)                               : 6 channels
Channel layout                           : L R C LFE Ls Rs
Sampling rate                            : 48.0 kHz
Frame rate                               : 31.250 FPS (1536 SPF)
Compression mode                         : Lossy
Stream size                              : 193 MiB (17%)
Language                                 : English
Service kind                             : Complete Main
Default                                  : No
Forced                                   : No

Text
ID                                       : 3
Format                                   : UTF-8
Codec ID                                 : S_TEXT/UTF8
Codec ID/Info                            : UTF-8 Plain Text
Duration                                 : 42 min 7 s
Bit rate                                 : 70 b/s
Count of elements                        : 719
Stream size                              : 21.8 KiB (0%)
Title                                    : SDH
Language                                 : English
Default                                  : No
Forced                                   : No


We have no issue with individuals posting or re-uploading our torrents on a platform we aren't on. However, if this is something you'd like to do, please do so in a 'as-is' format. We ask that you do not create a new torrent, include all descriptions you see above including the SEV logo, tags, notes and screenshots.
If you'd like to become a permanent poster on a website we don't post to, feel free to get in contact with a Sublime Encoded Video member.

We are recruiting/training new members for SEV & seedbox providers as well as people to help out with subtitles.
As you already know, we deliver quality, so you know the standard.
If you're interested, feel free to contact any of the team members.

Category:TV > HEVC/x265
Lang:English  English
Total Size:1.09 GB
Info Hash:995925ccec38a925d41d5081083164247e97f449
Added By:D0ct0rLew
Date Added:03-05-2021 20:58:42

  

Files

File List: 
 File Size
Batwoman S02E12 Initiate Self-Destruct 1080p AMZN WEBrip x265 DDP5.1 D0ct0rLew[SEV].mkv1.09 GB
Contact SEV.txt1.03 kB



Comments

There are currently no comments. Be the first one to write something !