Star Wars The Bad Batch S01E01 The Marksman 2021 Young Rock s01e11 The Goldbergs S08E20 The Handmaids Tale s04e04 the flash hindi Godzilla vs. Kong 2021 seal team 9-1-1 S04E11 nobody 2021 Big Sky S01E14 evo invincible S.W.A.T. S04E15 The Unholy 2021 Queen of the South S05E05 telly Debris S01E10 Chicago P.D. S08E13 etmovies Hindi 2021 ncis wrath of man Supergirl S06E06 nascar Mayans M.C. S03E09 Mare of Easttown s01e03 ramyug Wrath of Man 2021 The Flash S07E08 Storage Wars S13E05 marvel week Shameless S11E09 xxx 9-1-1 Lone Star S02E11 The Resident S04E12 Chicago Med S06E13 voyagers 2021 The Curse of Oak Island S08E25 without remorse The Nevers S01E04 yts SEAL Team S04E13 Chicago Fire S09E13 Stowaway 2021 FBI S03E12 The Virtuoso 2021 The Rookie s03e12 ettv rq.mp4 malayalam NCIS S18E13 aew The Mitchells vs. The Machines 2021 Kung Fu S01E05 wwe etrg ddr mortal kombat ethd Mortal Kombat 2021 SUPERGIRL New Amsterdam S03E10 FBI Most Wanted S02E12 Tom Clancys Without Remorse 2021 Prodigal Son s02e11 tom clancy's without remorse 2021 ita  0 Tyler Perrys The Oval S02E12 Tamil 
Warning! Use a VPN When Downloading Torrents!
Your IP Address is 3.230.154.160. Location United States
Your Internet Provider can see when you download torrents! Hide your IP Address with a VPN
ETTV warns: You should use VPN to hide your torrenting. HIDE ME NOW
ETTV Recommended TV Shows
AEW Dynamite 2021 05 05 Blood & Guts HDTV x264-NWCHD [TJET] torrent
Chicago.Fire.S09E13.720p.WEB.H264-STRONTiUM torrent
Chicago.PD.S08E13.720p.WEB.H264-STRONTiUM torrent
Fear.the.Walking.Dead.S06E12.720p.WEB.H264-GLHF torrent
Kung.Fu.2021.S01E05.720p.WEB.h264-GOSSIP torrent
Queen.of.the.South.S05E05.720p.WEB.H264-GGWP torrent
S.W.A.T.2017.S04E15.720p.WEB.h264-GOSSIP torrent
Seal.Team.S04E13.720p.WEB.h264-GOSSIP torrent
Forged.in.Fire.S08E20.720p.WEB.h264-BAE torrent
MasterChef.Australia.S13E14.1080p.HDTV.H264-CBFM torrent

ETTV Recommended SD
Await.the.Dawn.2021.HDRip.XviD.AC3-EVO torrent
Threshold.2021.HDRip.XviD.AC3-EVO torrent
Crisis.2021.BDRip.XviD.AC3-EVO torrent
Night.Shift.2021.HDRip.XviD.AC3-EVO torrent

ETTV Recommended HD
Mortal.Kombat.2021.1080p.WEB-DL.DD5.1.H.264-EVO torrent
Judas and the Black Messiah (2021) [LaKeith Stanfield] 1080p H264 DolbyD 5.1 ⛦ ©️nickarad torrent
San Andreas 2D & 3D (2015)[BDRip & BDRemux 1080p x 264 by alE13 AC3/DTS][Multi Audio & Multi Subtitles][Eng] torrent
The House With A Clock In Its Walls - Fantasy 2018 Eng Rus Multi-Subs 1080p [H264-mp4] torrent

ETTV Recommended UHD
Ben-Hur.1959.BDRip.2160p.Upscaled.Eng.DTS-HD.MA.DD5.1.gerald99 torrent
Donnie.Darko.2001.Theatrical.Cut.BDRip.2160p.UHD.HDR.Eng.DTS-HD.MA.DD5.1.gerald99 torrent
The.Irishman.2019.2160p.Upscaled.Eng.DDP5.1.gerald99 torrent
Speed.1994.BDRip.2160p.UHD.HDR.Eng.DTS-HD.MA.DD5.1.gerald99 torrent
The.Princess.Bride.1987.BDRip.2160p.UHD.HDR10Plus.Eng.DTS-HD.MA.DD5.1.gerald99 torrent
Fear.and.Loathing.in.Las.Vegas.1998.2160p.Upscaled.Open.Matte.Eng.DTS.DD5.1.gerald99 torrent

ETTV Recommended Cam
Long Story Short (2021) English HDCAM x264 AAC By Full4Movies torrent
Ascendant (2021) 720p HDCAM English New Movie x264 AAC By Full4Movies torrent
Mortal Kombat (2021) 720p HDCAM English New Movie x264 AAC By Full4Movies torrent
Voyagers (2021) 720p HDCAM English New Movie x264 AAC By Full4Movies torrent

ETTV Recommended Foreign
Dreams of Getting Rich 2021 HDRip HC 1080P x264 AAC Mandarin torrent
Iris (1987) UNCUT 720p DVDRip x264 [Dual Audio] [Hindi DD 2.0 - Dutch 2.0] Exclusive By -=!Dr.STAR!=- torrent
Asuraguru (2021) HDRip 720p Malayalam (Org) + Tamil (DD5.1) 1.1GB  ESub[MB] torrent
Stand By Me Doraemon 1 And 2 2014-2020 720p.BluRay x264 Mkvking torrent
Mortal.Kombat.2021.SPANiSH.2160p.HMAX.WEB-DL.DDP5.1.Atmos.HDR.HEVC-dem3nt3 torrent
Without.Remorse.Senza.Rimorso.Di.Tom.Clancy.2021.iTALiAN.MULTi.UHD.HDR.WEB.x265-MeM.mkv torrent

ETTV Recommended Misc
Bob Marley & The Wailers - Gold 2005Mp-3 torrent
Steely Dan - Aja (1977) (PBTHAL LP 24-96) [FLAC] vtwin88cube torrent
The Police - Outlandos d'Amour (1978) (PBTHAL LP 24-96) [FLAC] vtwin88cube torrent
VA - The Best Mother\'s Day Album In The World...Ever! (2021) Mp3 320kbps [PMEDIA] ⭐️ torrent
Outlaw Devils - The Bastard Sons of Rock \'n\' Roll (2021) Mp3 320kbps [PMEDIA] ⭐️ torrent
Frank Zappa - Sleep Dirt (1979) [96khz - 24bits] torrent


Download Torrent "The Nevers S01e04 Undertaking With HBO Special 1080p WEBrip x265 DDP5.1 D0c..."

IMDB Details
Description:

N/A

Genre:

N/A

Download Torrent (Magnet)
Download Torrent (File)

Seeds: 244
Leechers: 38

Uploaded by:
D0ct0rLew


Category:
TV > HEVC/x265 (Super High Quality, Small size, high CPU usage)


Details
Title:The Nevers S01e04 Undertaking With HBO Special 1080p WEBrip x265 DDP5.1 D0c...
Description:






Media Information

General
Unique ID                                : 75236518711242079987930855338986471101 (0x389A06C419828D50B71AE765D57C7EBD)
Complete name                            : The Nevers S01e04 Undertaking With HBO Special 1080p WEBrip x265 DDP5.1 D0ct0rLew[SEV].mkv
Format                                   : Matroska
Format version                           : Version 4
File size                                : 2.09 GiB
Duration                                 : 1 h 5 min
Overall bit rate                         : 4 568 kb/s
Movie name                               : The Nevers S01e04 Undertaking With HBO Special 1080p WEBrip x265 DDP5.1 D0ct0rLew[SEV]
Encoded date                             : UTC 2021-05-04 01:42:47
Writing application                      : mkvmerge v56.1.0 ('My Friend') 64-bit
Writing library                          : libebml v1.4.2 + libmatroska v1.6.4
Attachments                              : StintUltraCondensed-lL0e.ttf

Video
ID                                       : 1
Format                                   : HEVC
Format/Info                              : High Efficiency Video Coding
Format profile                           : Main [email protected]@Main
Codec ID                                 : V_MPEGH/ISO/HEVC
Duration                                 : 1 h 5 min
Bit rate                                 : 3 926 kb/s
Width                                    : 1 920 pixels
Height                                   : 1 080 pixels
Display aspect ratio                     : 16:9
Frame rate mode                          : Constant
Frame rate                               : 23.976 (24000/1001) FPS
Color space                              : YUV
Chroma subsampling                       : 4:2:0
Bit depth                                : 10 bits
Bits/(Pixel*Frame)                       : 0.079
Stream size                              : 1.79 GiB (86%)
Writing library                          : x265 3.5+9-bf91444e0:[Windows][MSVC 1928][64 bit] 10bit
Encoding settings                        : cpuid=1049583 / frame-threads=3 / numa-pools=8 / wpp / no-pmode / no-pme / no-psnr / no-ssim / log-level=2 / input-csp=1 / input-res=1920x1080 / interlace=0 / total-frames=1416 / level-idc=0 / high-tier=1 / uhd-bd=0 / ref=4 / no-allow-non-conformance / no-repeat-headers / annexb / no-aud / no-eob / no-eos / no-hrd / info / hash=0 / no-temporal-layers / open-gop / min-keyint=24 / keyint=240 / gop-lookahead=0 / bframes=16 / b-adapt=2 / b-pyramid / bframe-bias=0 / rc-lookahead=90 / lookahead-slices=4 / scenecut=40 / hist-scenecut=0 / radl=0 / no-splice / no-intra-refresh / ctu=64 / min-cu-size=8 / no-rect / no-amp / max-tu-size=32 / tu-inter-depth=4 / tu-intra-depth=4 / limit-tu=0 / rdoq-level=2 / dynamic-rd=0.00 / no-ssim-rd / signhide / no-tskip / nr-intra=0 / nr-inter=0 / no-constrained-intra / no-strong-intra-smoothing / max-merge=5 / limit-refs=0 / limit-modes / me=3 / subme=7 / merange=92 / temporal-mvp / no-frame-dup / no-hme / weightp / no-weightb / no-analyze-src-pics / deblock=0:0 / sao / no-sao-non-deblock / rd=4 / selective-sao=4 / no-early-skip / rskip / no-fast-intra / no-tskip-fast / no-cu-lossless / no-b-intra / no-splitrd-skip / rdpenalty=0 / psy-rd=1.40 / psy-rdoq=1.00 / no-rd-refine / no-lossless / cbqpoffs=0 / crqpoffs=0 / rc=crf / crf=19.0 / qcomp=0.60 / qpstep=4 / stats-write=0 / stats-read=0 / ipratio=1.40 / pbratio=1.30 / aq-mode=3 / aq-strength=1.00 / cutree / zone-count=0 / no-strict-cbr / qg-size=32 / no-rc-grain / qpmax=69 / qpmin=0 / no-const-vbv / sar=1 / overscan=0 / videoformat=5 / range=0 / colorprim=2 / transfer=2 / colormatrix=2 / chromaloc=0 / display-window=0 / cll=0,0 / min-luma=0 / max-luma=1023 / log2-max-poc-lsb=8 / vui-timing-info / vui-hrd-info / slices=1 / no-opt-qp-pps / no-opt-ref-list-length-pps / no-multi-pass-opt-rps / scenecut-bias=0.05 / hist-threshold=0.03 / no-opt-cu-delta-qp / no-aq-motion / no-hdr10 / no-hdr10-opt / no-dhdr10-opt / no-idr-recovery-sei / analysis-reuse-level=0 / analysis-save-reuse-level=0 / analysis-load-reuse-level=0 / scale-factor=0 / refine-intra=0 / refine-inter=0 / refine-mv=1 / refine-ctu-distortion=0 / no-limit-sao / ctu-info=0 / no-lowpass-dct / refine-analysis-type=0 / copy-pic=1 / max-ausize-factor=1.0 / no-dynamic-refine / no-single-sei / no-hevc-aq / no-svt / no-field / qp-adaptation-range=1.00 / scenecut-aware-qp=0conformance-window-offsets / right=0 / bottom=0 / decoder-max-rate=0 / no-vbv-live-multi-pass
Default                                  : Yes
Forced                                   : No

Audio
ID                                       : 2
Format                                   : E-AC-3
Format/Info                              : Enhanced AC-3
Commercial name                          : Dolby Digital Plus
Codec ID                                 : A_EAC3
Duration                                 : 1 h 5 min
Bit rate mode                            : Constant
Bit rate                                 : 640 kb/s
Channel(s)                               : 6 channels
Channel layout                           : L R C LFE Ls Rs
Sampling rate                            : 48.0 kHz
Frame rate                               : 31.250 FPS (1536 SPF)
Compression mode                         : Lossy
Delay relative to video                  : 24 ms
Stream size                              : 300 MiB (14%)
Language                                 : English
Service kind                             : Complete Main
Default                                  : Yes
Forced                                   : No

Text
ID                                       : 3
Format                                   : ASS
Codec ID                                 : S_TEXT/ASS
Codec ID/Info                            : Advanced Sub Station Alpha
Duration                                 : 1 h 5 min
Bit rate                                 : 132 b/s
Count of elements                        : 1088
Compression mode                         : Lossless
Stream size                              : 63.3 KiB (0%)
Language                                 : English
Default                                  : Yes
Forced                                   : No


We have no issue with individuals posting or re-uploading our torrents on a platform we aren't on. However, if this is something you'd like to do, please do so in a 'as-is' format. We ask that you do not create a new torrent, include all descriptions you see above including the SEV logo, tags, notes and screenshots.
If you'd like to become a permanent poster on a website we don't post to, feel free to get in contact with a Sublime Encoded Video member.

We are recruiting/training new members for SEV & seedbox providers as well as people to help out with subtitles.
As you already know, we deliver quality, so you know the standard.
If you're interested, feel free to contact any of the team members.

Category:TV > HEVC/x265
Lang:English  English
Total Size:2.09 GB
Info Hash:de69069cfbccc286bfc5849ee07761e957473a4c
Added By:D0ct0rLew
Date Added:04-05-2021 04:25:18

  

Files

File List: 
 File Size
Contact SEV.txt1.03 kB
The Nevers S01e04 Undertaking With HBO Special 1080p WEBrip x265 DDP5.1 D0ct0rLew[SEV].mkv2.09 GB



Comments

There are currently no comments. Be the first one to write something !