ufc  yts Hindi уйфу Infinite 2021 фуйф In The Heights 2021 фуфф йфуф фууф ууйф йфйф Wrath of Man 2021 фуйу фффф etrg уфйф ufc 263 уййй уйуф ййфф йфйй фййу ффуй уййу ййуй ййфу A Quiet Place Part II 2021 sunflower уйуу фууй йуфу ettv The Conjuring The Devil Made Me Do It 2021 фййф ййуу йффй ethd фйуу уфуф Spiral From the Book of Saw 2021 фууу фйфф Cruella 2021 фйфй loki s01e01 йййу loki уфуу йфуй йуйй уффй уйуй ффйф ууфф йууу ууйу йуфй уфйу уффф ййфй йууф уйфф ddr йййй F9 2021 indycar etmovies фффу фйуф evo Xxx йуйф 
Warning! Use a V.P.N when Downloading Torrents!
Your IP Address is 3.236.118.7. Location United States
Your Internet Provider can see when you download torrents! Hide your IP Address with a V.P.N
ETTV warns: You should use V.P.N to hide your torrenting. HIDE ME NOW
ETTV Recommended TV Shows
WWE Friday Night SmackDown 2021 06 11 HDTV x264-NWCHD [TJET] torrent
NASCAR Camping World Truck Series 2021. R11. SpeedyCash.com 220. Weekend on FOX torrent
Black.Monday.S03E04.720p.WEB.H264-GGEZ torrent
The.Chi.S04E04.720p.WEB.h264-GOSSIP torrent
The.Girlfriend.Experience.S03E08.720p.WEB.H264-GGEZ torrent
The.Owl.House.S02E01.Separate.Tides.1080p.HULU.WEBRip.AAC2.0.H264-LAZY torrent
UFC.263.HDTV.H264.Fight-BB torrent
MasterChef.Australia.S13E40.720p.HDTV.x264-ORENJI torrent
Kingdom S01 2019 1080p 10bit NF WEBRip English AAC 5.1 x265 HEVC - MoviePirate - Telly torrent
WWE NXT TakeOver In Your House 2021 WEB h264-HEEL [TJET] torrent

ETTV Recommended SD
Wish.Dragon.2021.HDRip.XviD.AC3-EVO torrent
Night.Walk.2021.HDRip.XviD.AC3-EVO torrent
The.Unholy.2021.BRRip.XviD.AC3-EVO torrent
Untitled.Horror.Movie.2021.HDRip.XviD.AC3-EVO torrent

ETTV Recommended HD
Spiral: From the Book of Saw (2021) + Extras (1080p WEB-DL x265 HEVC 10bit EAC3 5.1 SAMPA) [QxR] torrent
The.Case.Against.Brooklyn.1958.(Film-Noir).1080p.BRRip.x264-Classics torrent
Spider-Man Homecoming (2017) 3D HSBS 1080p H264 DolbyD 5.1 👓 ©️nickarad torrent
Lethal Love Letter 2021 720p WEB HEVC x265 torrent

ETTV Recommended UHD
Leon.The.Professional.1994.EXTENDED.4K.HDR.2160p.BDRip Ita Eng Fre x265-NAHOM torrent
Wrath.of.Man.2021.2160p.HDR.mUHD.WebRip.HEVC.DDP5.1-DDR.mkv torrent
King.Kong.2005.EXTENDED.4K.HDR.2160p.BDRip Ita Eng x265-NAHOM torrent
Hunger Games 2012 BluRay 1080p  x265 DTS-HD MA 7.1 D0ct0rLew[SEV] torrent
Minority.Report.2002.4K.SDR.2160p.WEBDL Ita Eng x265-NAHOM torrent
Saw.2004.4K.HDR.2160p.BDRip Ita Eng x265-NAHOM torrent

ETTV Recommended Cam
Fast.And.Furious.9.2021. CAM NEW SOURCE CLEAN SomeCoontS torrent
A.Quiet.Place.Part.II.2021.TC720p.Clean.Cam.H264.AC3.WARRIORS torrent
The Hitmans Wifes Bodyguard (2021) 720p English HDCAM-Rip x264 AAC By Full4Movies torrent
Ascendant (2021) 720p HDCAM English New Movie x264 AAC By Full4Movies torrent

ETTV Recommended Foreign
Blindspotting (2018) BluRay 1080p.H264 Ita Eng AC3 5.1 Sub Ita Eng - realDMDJ torrent
Riders of Justice 2020 DANISH 720p BluRay HEVC x265-RMTeam torrent
Deliver Us From Evil 2020 Final Cut 720p BluRay HEVC X265-RMTeam torrent
Viaje.al.Cuarto.de.una.Madre.2018.720p.WEBRip.x264.AC3.HORiZON-ArtSubs torrent
Preparations.to.Be.Together.for.an.Unknown.Period.of.Time.2020.1080p.WEB-DL.x264.AC3.HORiZON-ArtSubs torrent
[blues-rock, southern rock] (2020) The Allman Brothers Band – Trouble No More (50th Anniversary Collection) [FLAC] [DarkAngie] torrent

ETTV Recommended Misc
[ambient, classical] (2021) Simon Goff - Vale [FLAC] [DarkAngie] torrent
The Rubettes - Gold -3-CD-(2021)-[FLAC-EAC]-[TFM] torrent
[blues-rock, southern rock] (2020) The Allman Betts Band - Bless Your Heart [FLAC] [DarkAngie] torrent
[indie-pop] (2021) Japanese Breakfast - Jubilee [FLAC] [DarkAngie] torrent
[indie-folk] (2021) Chloe Foy - Where Shall We Begin [FLAC] [DarkAngie] torrent
[blues-rock, southern rock] (2020) The Allman Brothers Band – Trouble No More (50th Anniversary Collection) [FLAC] [DarkAngie] torrent


Download Torrent "Wrath of Man (2021) 720p HDCAM English x264 AAC By Full4Movies"

IMDB Details
Description:

The plot follows H, a cold and mysterious character working at a cash truck company responsible for moving hundreds of millions of dollars around Los Angeles each week.

Genre:

Action, Thriller

Download Torrent (Magnet)
Download Torrent (File)

Seeds: 535
Leechers: 114

Uploaded by:
full4movies


Category:
Movies > CAM/TS


Details
Title:Wrath of Man (2021) 720p HDCAM English x264 AAC By Full4Movies
Description:


Visit Us = https://www.full4movies.org/



General
Complete name                  : Wrath of Man (2021) 480p HDCAM English x264 AAC By Full4Movies.mkv
Format                         : Matroska
Format version                 : Version 4 / Version 2
File size                      : 800 MiB
Duration                       : 1 h 52 min
Overall bit rate               : 993 kb/s
Encoded date                   : UTC 2021-05-09 12:47:20
Writing application            : mkvmerge v8.3.0 ('Over the Horizon') 64bit
Writing library                : libebml v1.3.1 + libmatroska v1.4.2
Attachments                    : cropped-full4movies-Logo.png

Video
ID                             : 1
Format                         : AVC
Format/Info                    : Advanced Video Codec
Format profile                 : [email protected]
Format settings, CABAC         : Yes
Format settings, RefFrames     : 4 frames
Codec ID                       : V_MPEG4/ISO/AVC
Duration                       : 1 h 52 min
Bit rate                       : 866 kb/s
Width                          : 1 280 pixels
Height                         : 536 pixels
Display aspect ratio           : 2.40:1
Frame rate mode                : Constant
Frame rate                     : 30.000 FPS
Color space                    : YUV
Chroma subsampling             : 4:2:0
Bit depth                      : 8 bits
Scan type                      : Progressive
Bits/(Pixel*Frame)             : 0.042
Stream size                    : 695 MiB (87%)
Writing library                : x264 core 157 r2935 545de2f
Language                       : English
Default                        : Yes
Forced                         : No

Audio
ID                             : 2
Format                         : MPEG Audio
Format version                 : Version 1
Format profile                 : Layer 3
Mode                           : Joint stereo
Mode extension                 : MS Stereo
Codec ID                       : A_MPEG/L3
Codec ID/Hint                  : MP3
Duration                       : 1 h 52 min
Bit rate mode                  : Constant
Bit rate                       : 128 kb/s
Channel(s)                     : 2 channels
Sampling rate                  : 48.0 kHz
Frame rate                     : 41.667 FPS (1152 SPF)
Compression mode               : Lossy
Stream size                    : 103 MiB (13%)
Writing library                : LAME3.98.2
Language                       : English
Default                        : Yes
Forced                         : No

Screen Shoots







Category:Movies > CAM/TS
Lang:English  English
Total Size:800 MB
Info Hash:49573ee172df3cd474fa8f0cd45b1d004ac60e75
Added By:full4movies
Date Added:09-05-2021 14:23:15

  

Files

File List: 
 File Size
Wrath of Man (2021) 480p HDCAM English x264 AAC By Full4Movies.mkv800 MB



Comments

There are currently no comments. Be the first one to write something !