The Family Man ddr DCs Legends of Tomorrow S06E06 90 Day Fiance Happily Ever After s06e08 proper xxx The Hitmans Wifes Bodyguard 2021 Rogue Hostage 2021 Fear the Walking Dead S06E16 Army of the Dead 2021 Spiral From the Book of Saw 2021 Spirit Untamed 2021 Mortal Kombat 2021 Cruella 2021 Hindi 2021 F9 2021 lego masters us s02e02 Infinite 2021 WRATH OF MAN The Chi S04E04 Final space a quiet place part 2 batwoman Batwoman S02E16 evo Blindspotting S01E01 Time The Handmaids Tale S04E09 Wrath of Man 2021 NCIS  Fear the Walking Dead A Quiet Place 2 ethd Naked and Afraid XL s07e08 Awake 2021 Hells Kitchen S20E03 Clarice S01E11 0 malayalam Time S01E01 The Beast Must Die S01E04 War of the Worlds loki ITA Those Who Wish Me Dead 2021 sunflower The Misfits 2021 A Quiet Place Part II 2021 The Conjuring The Devil Made Me Do It 2021 etmovies Loki S01E01 The Republic of Sarah S01E01 infinite A Quiet Place Part II 2020 Peter Rabbit 2 The Runaway 2021 Xtreme 2021 Nobody 2021 Below Deck Sailing Yacht S02E16 In The Heights 2021 Godzilla vs. Kong 2021 f9 Hitmans Wifes Bodyguard 2021 Last Week Tonight with John Oliver S08E15 fast and furious 9 yts etrg Evo a quiet place All American S03E14 lupin hindi ettv wwe 
Warning! Use a V.P.N when Downloading Torrents!
Your IP Address is 3.215.79.116. Location United States
Your Internet Provider can see when you download torrents! Hide your IP Address with a V.P.N
ETTV warns: You should use V.P.N to hide your torrenting. HIDE ME NOW
ETTV Recommended TV Shows
WWE Monday Night Raw 2021 06 14 HDTV x264-NWCHD [TJET] torrent
American.Dad.S17E09.XviD-AFG[ettv] torrent
Below.Deck.Sailing.Yacht.S02E16.720p.HDTV.x264-SYNCOPY torrent
Hells.Kitchen.US.S20E03.1080p.WEB.h264-BAE torrent
The.Republic.of.Sarah.S01E01.XviD-AFG[ettv] torrent
Tuca.and.Bertie.S02E01.720p.WEBRip.x264-BAE[ettv] torrent
The.Story.of.Late.Night.S01E01.REPACK.1080p.WEBRip.x264-BAE[ettv] torrent
MasterChef.Australia.S13E41.HDTV.x264-FQM[ettv] torrent
I.Sniper.S01E06.WEBRip.x264-BAE[ettv] torrent
Big.Brother.AU.S13E24.HDTV.x264-FQM[ettv] torrent

ETTV Recommended SD
Chained.2021.HDRip.XviD.AC3-EVO torrent
Amityville.Vampire.2021.HDRip.XviD.AC3-EVO torrent
Counting.Bullets.2021.HDRip.XviD.AC3-EVO torrent
The.Space.Between.2021.HDRip.XviD.AC3-EVO torrent

ETTV Recommended HD
Spiral: From the Book of Saw (2021) + Extras (1080p WEB-DL x265 HEVC 10bit EAC3 5.1 SAMPA) [QxR] torrent
Spider-Man Homecoming (2017) 3D HSBS 1080p H264 DolbyD 5.1 ūüĎď ¬©ÔłŹnickarad torrent
Lethal Love Letter 2021 720p WEB HEVC x265 torrent
Secrets.Of.A.Gold.Digger.Killer.2021.LIFETIME.720p.WEB-DL.AAC2.0.H264-LBR torrent

ETTV Recommended UHD
Leon.The.Professional.1994.EXTENDED.4K.HDR.2160p.BDRip Ita Eng Fre x265-NAHOM torrent
Wrath.of.Man.2021.2160p.HDR.mUHD.WebRip.HEVC.DDP5.1-DDR.mkv torrent
King.Kong.2005.EXTENDED.4K.HDR.2160p.BDRip Ita Eng x265-NAHOM torrent
Hunger Games 2012 BluRay 1080p  x265 DTS-HD MA 7.1 D0ct0rLew[SEV] torrent
Minority.Report.2002.4K.SDR.2160p.WEBDL Ita Eng x265-NAHOM torrent
Saw.2004.4K.HDR.2160p.BDRip Ita Eng x265-NAHOM torrent

ETTV Recommended Cam
Fast.And.Furious.9.2021. CAM NEW SOURCE CLEAN SomeCoontS torrent
A.Quiet.Place.Part.II.2021.TC720p.Clean.Cam.H264.AC3.WARRIORS torrent
The Hitmans Wifes Bodyguard (2021) 720p English HDCAM-Rip x264 AAC By Full4Movies torrent
Ascendant (2021) 720p HDCAM English New Movie x264 AAC By Full4Movies torrent

ETTV Recommended Foreign
Deliver Us From Evil 2020 Final Cut 720p BluRay HEVC X265-RMTeam torrent
Viaje.al.Cuarto.de.una.Madre.2018.720p.WEBRip.x264.AC3.HORiZON-ArtSubs torrent
Preparations.to.Be.Together.for.an.Unknown.Period.of.Time.2020.1080p.WEB-DL.x264.AC3.HORiZON-ArtSubs torrent
Anger Management 2003 x264 720p Esub BluRay Dual Audio English Hindi THE GOPI SAHI torrent
Home Sweet Home 2021 720p HC HDRip Chinese H264 torrent
2 Scary Movie 2 2001 x264 720p Esub BluRay Dual Audio English Hindi THE GOPI SAHI torrent

ETTV Recommended Misc
[americana, indie-folk] (2021) Joana Serrat - Hardcore from the Heart [FLAC] [DarkAngie] torrent
(2021) Black Sabbath - Sabotage [Super Deluxe Edition] [FLAC] [DarkAngie] torrent
VA - New Music Releases Week 23 of 2021 (Mp3 320kbps Songs) [PMEDIA] ‚≠źÔłŹ torrent
70 Tracks I Love My ~60s Funk Playlist Spotify (ETTV)~320  kbps Beats‚≠ź torrent
This Is James Brown Playlist Spotify Mp3~ 320  kbps   (ETTV) Beats‚≠ź torrent
The Night of the Mayas- Music of Silvestre Revueltas Mp-3 1994 torrent


Download Torrent "Demon Slayer the Movie: Mugen Train / Kimetsu no Yaiba: Mugen Ressha-Hen (2..."

IMDB Details
Description:

N/A

Genre:

N/A

Download Torrent (Magnet)
Download Torrent (File)

Seeds: 15
Leechers: 0

Uploaded by:
MelbetCinema7


Category:
Anime > Movies


Details
Title:Demon Slayer the Movie: Mugen Train / Kimetsu no Yaiba: Mugen Ressha-Hen (2...
Description:


https://youtu.be/ATJYac_dORw

https://www.imdb.com/title/tt11032374






Video
ID                                       : 1
Format                                   : AVC
Format/Info                              : Advanced Video Codec
Format profile¬† ¬† ¬† ¬† ¬† ¬† ¬† ¬† ¬† ¬† ¬† ¬† ¬† ¬†: [email protected]
Format settings                          : CABAC / 4 Ref Frames
Format settings, CABAC                   : Yes
Format settings, Reference frames        : 4 frames
Codec ID                                 : V_MPEG4/ISO/AVC
Duration                                 : 1 h 58 min
Bit rate                                 : 3 885 kb/s
Width                                    : 1 920 pixels
Height                                   : 1 080 pixels
Display aspect ratio                     : 16:9
Frame rate mode                          : Constant
Frame rate                               : 23.976 (24000/1001) FPS
Color space                              : YUV
Chroma subsampling                       : 4:2:0
Bit depth                                : 8 bits
Scan type                                : Progressive
Bits/(Pixel*Frame)                       : 0.078
Stream size                              : 3.21 GiB (95%)
Default                                  : Yes
Forced                                   : No
Color range                              : Limited
Color primaries                          : BT.709
Transfer characteristics                 : BT.709
Matrix coefficients                      : BT.709

Audio
ID                                       : 2
Format                                   : AAC LC
Format/Info                              : Advanced Audio Codec Low Complexity
Codec ID                                 : A_AAC-2
Duration                                 : 1 h 58 min
Bit rate                                 : 192 kb/s
Channel(s)                               : 2 channels
Channel layout                           : L R
Sampling rate                            : 48.0 kHz
Frame rate                               : 46.875 FPS (1024 SPF)
Compression mode                         : Lossy
Stream size                              : 160 MiB (5%)
Title                                    : [Hindi Dub] MelbetCinema
Language                                 : Hindi
Default                                  : Yes
Forced                                   : No
Category:Anime > Movies
Lang:Hindi  Hindi
Total Size:3.37 GB
Info Hash:627301c5cca39863678e6750112424ed45ebc96e
Added By:MelbetCinema7
Date Added:31-05-2021 09:46:15

Files

File List: 
 File Size
Demon Slayer Mugen Train (2020) [Hindi Dub] 1080p WEBRip MelbetCinema.mkv3.37 GB



Comments

There are currently no comments. Be the first one to write something !