etrg indycar war of the worlds Lupin yts xxx ufc 263 Clarice S01E11 The Conjuring The Devil Made Me Do It 2021 Spiral From the Book of Saw 2021 0 F9 2021 Fear the Walking Dead S06E16 ettv Godzilla vs. Kong 2021 The Beast Must Die S01E04 A Quiet Place 2 Infinite 2021 Those Who Wish Me Dead 2021 batwoman DCs Legends of Tomorrow S06E06 fast and furious 9 Naked and Afraid XL S07E08 the family man army of the dead 2021 final space etmovies raya and the last dragon 2021 a quiet place part 2 a quiet place part ii 2020 Batwoman S02E16 nascar sunflower infinite Wrath of Man 2021 The Misfits 2021 Spirit Untamed 2021 The Handmaids Tale S04E09 Hindi 2021 f9 evo The Unholy 2021 ufc In The Heights 2021 manifest Nobody 2021 Wwe The Hitmans Wifes Bodyguard 2021 Blindspotting S01E01 Hitmans Wifes Bodyguard 2021 Mortal Kombat 2021 ddr WRATH OF MAN Awake 2021 legends of tomorrow S06e06 proper time hindi Loki Peter Rabbit 2 The Runaway 2021 a quiet place Rogue Hostage 2021 Cruella 2021 ITA ethd   a quiet place 2018 Loki S01E01 malayalam  Fear the walking dead  The Chi S04E04 A Quiet Place Part II 2021 
Warning! Use a V.P.N when Downloading Torrents!
Your IP Address is 3.233.219.62. Location United States
Your Internet Provider can see when you download torrents! Hide your IP Address with a V.P.N
ETTV warns: You should use V.P.N to hide your torrenting. HIDE ME NOW
ETTV Recommended TV Shows
WWE Monday Night Raw 2021 06 14 HDTV x264-NWCHD [TJET] torrent
American.Dad.S17E09.XviD-AFG[ettv] torrent
Below.Deck.Sailing.Yacht.S02E16.720p.HDTV.x264-SYNCOPY torrent
Hells.Kitchen.US.S20E03.1080p.WEB.h264-BAE torrent
The.Republic.of.Sarah.S01E01.XviD-AFG[ettv] torrent
Tuca.and.Bertie.S02E01.720p.WEBRip.x264-BAE[ettv] torrent
The.Story.of.Late.Night.S01E01.REPACK.1080p.WEBRip.x264-BAE[ettv] torrent
MasterChef.Australia.S13E41.HDTV.x264-FQM[ettv] torrent
I.Sniper.S01E06.WEBRip.x264-BAE[ettv] torrent
Big.Brother.AU.S13E24.HDTV.x264-FQM[ettv] torrent

ETTV Recommended SD
Chained.2021.HDRip.XviD.AC3-EVO torrent
Amityville.Vampire.2021.HDRip.XviD.AC3-EVO torrent
Counting.Bullets.2021.HDRip.XviD.AC3-EVO torrent
The.Space.Between.2021.HDRip.XviD.AC3-EVO torrent

ETTV Recommended HD
Spiral: From the Book of Saw (2021) + Extras (1080p WEB-DL x265 HEVC 10bit EAC3 5.1 SAMPA) [QxR] torrent
Spider-Man Homecoming (2017) 3D HSBS 1080p H264 DolbyD 5.1 ūüĎď ¬©ÔłŹnickarad torrent
Lethal Love Letter 2021 720p WEB HEVC x265 torrent
Secrets.Of.A.Gold.Digger.Killer.2021.LIFETIME.720p.WEB-DL.AAC2.0.H264-LBR torrent

ETTV Recommended UHD
Leon.The.Professional.1994.EXTENDED.4K.HDR.2160p.BDRip Ita Eng Fre x265-NAHOM torrent
Wrath.of.Man.2021.2160p.HDR.mUHD.WebRip.HEVC.DDP5.1-DDR.mkv torrent
King.Kong.2005.EXTENDED.4K.HDR.2160p.BDRip Ita Eng x265-NAHOM torrent
Hunger Games 2012 BluRay 1080p  x265 DTS-HD MA 7.1 D0ct0rLew[SEV] torrent
Minority.Report.2002.4K.SDR.2160p.WEBDL Ita Eng x265-NAHOM torrent
Saw.2004.4K.HDR.2160p.BDRip Ita Eng x265-NAHOM torrent

ETTV Recommended Cam
Fast.And.Furious.9.2021. CAM NEW SOURCE CLEAN SomeCoontS torrent
A.Quiet.Place.Part.II.2021.TC720p.Clean.Cam.H264.AC3.WARRIORS torrent
The Hitmans Wifes Bodyguard (2021) 720p English HDCAM-Rip x264 AAC By Full4Movies torrent
Ascendant (2021) 720p HDCAM English New Movie x264 AAC By Full4Movies torrent

ETTV Recommended Foreign
Deliver Us From Evil 2020 Final Cut 720p BluRay HEVC X265-RMTeam torrent
Viaje.al.Cuarto.de.una.Madre.2018.720p.WEBRip.x264.AC3.HORiZON-ArtSubs torrent
Preparations.to.Be.Together.for.an.Unknown.Period.of.Time.2020.1080p.WEB-DL.x264.AC3.HORiZON-ArtSubs torrent
Anger Management 2003 x264 720p Esub BluRay Dual Audio English Hindi THE GOPI SAHI torrent
Home Sweet Home 2021 720p HC HDRip Chinese H264 torrent
2 Scary Movie 2 2001 x264 720p Esub BluRay Dual Audio English Hindi THE GOPI SAHI torrent

ETTV Recommended Misc
[americana, indie-folk] (2021) Joana Serrat - Hardcore from the Heart [FLAC] [DarkAngie] torrent
(2021) Black Sabbath - Sabotage [Super Deluxe Edition] [FLAC] [DarkAngie] torrent
VA - New Music Releases Week 23 of 2021 (Mp3 320kbps Songs) [PMEDIA] ‚≠źÔłŹ torrent
70 Tracks I Love My ~60s Funk Playlist Spotify (ETTV)~320  kbps Beats‚≠ź torrent
This Is James Brown Playlist Spotify Mp3~ 320  kbps   (ETTV) Beats‚≠ź torrent
The Night of the Mayas- Music of Silvestre Revueltas Mp-3 1994 torrent


Download Torrent "Fear.The.Walking.Dead.S06E16.WEB-DL.XviD.B4ND1T69"

IMDB Details
Description:

A Walking Dead spin-off, set in Los Angeles, following two families who must band together to survive the undead apocalypse.

Genre:

Drama, Horror, Sci-Fi, Thriller

Download Torrent (Magnet)
Download Torrent (File)

Seeds: 234
Leechers: 27

Uploaded by:
B4ND1T69


Category:
TV > SD/XVID


Details
Title:Fear.The.Walking.Dead.S06E16.WEB-DL.XviD.B4ND1T69
Description:
Fear.The.Walking.Dead.S06E16.WEB-DL.XviD.B4ND1T69



Creators: Dave Erickson, Robert Kirkman
Stars: Kim Dickens, Frank Dillane, Cliff Curtis

Plot/Story:
The Beginning
Everyone desperately scrambles to live out the coming destruction on their own terms.

General
Complete name               : Fear.The.Walking.Dead.S06E16.WEB-DL.XviD.B4ND1T69.avi
Format                      : AVI
Format/Info                 : Audio Video Interleave
File size                   : 513 MiB
Duration                    : 50 min 41 s
Overall bit rate            : 1 415 kb/s
Subtitles                   : Yes...Included(HI)

Video
ID                          : 0
Format                      : MPEG-4 Visual
Format profile¬†¬†¬†¬†¬†¬†¬†¬†¬†¬†¬†¬†¬† : Advanced [email protected]
Format settings, BVOP       : 2
Format settings, QPel       : No
Format settings, GMC        : No warppoints
Format settings, Matrix     : Default (H.263)
Codec ID                    : XVID
Codec ID/Hint               : XviD
Duration                    : 50 min 41 s
Bit rate                    : 1 273 kb/s
Width                       : 640 pixels
Height                      : 360 pixels
Display aspect ratio        : 16:9
Frame rate                  : 23.976 (24000/1001) FPS
Color space                 : YUV
Chroma subsampling          : 4:2:0
Bit depth                   : 8 bits
Scan type                   : Progressive
Compression mode            : Lossy
Bits/(Pixel*Frame)          : 0.230
Stream size                 : 462 MiB (90%)
Writing library             : XviD 64

Audio
ID                          : 1
Format                      : MPEG Audio
Format version              : Version 1
Format profile              : Layer 3
Codec ID                    : 55
Codec ID/Hint               : MP3
Duration                    : 50 min 41 s
Bit rate mode               : Constant
Bit rate                    : 128 kb/s
Channel(s)                  : 2 channels
Sampling rate               : 48.0 kHz
Compression mode            : Lossy
Stream size                 : 46.4 MiB (9%)
Alignment                   : Aligned on interleaves
Interleave, duration        : 24  ms (0.58 video frame)

Screenshots:







Please Seed For As Long As Possible
Or At Least 1:1 Ratio...Thanks
Enjoy Peeps

Category:TV > SD/XVID
Lang:English  English
Total Size:513 MB
Info Hash:918f5c9ddcb52890cccd6e770cef3e6bcc34fa35
Added By:B4ND1T69
Date Added:10-06-2021 12:54:01

Files

File List: 
 File Size
Downloaded from 1337x.txt61.00 B
Downloaded from ETTV.txt55.00 B
Downloaded from Glodls.to.txt261.00 B
Downloaded from ProStyleX.txt54.00 B
Downloaded from The Pirate Bay.txt57.00 B
Fear.The.Walking.Dead.S06E16.WEB-DL.XviD.B4ND1T69.avi513 MB
Fear.The.Walking.Dead.S06E16.WEB-DL.XviD.B4ND1T69.srt69.11 kB



Comments

There are currently no comments. Be the first one to write something !