ufc  yts Hindi уйфу Infinite 2021 фуйф In The Heights 2021 фуфф йфуф фууф ууйф йфйф Wrath of Man 2021 фуйу фффф etrg уфйф ufc 263 уййй уйуф ййфф йфйй фййу ффуй уййу ййуй ййфу A Quiet Place Part II 2021 sunflower уйуу фууй йуфу ettv The Conjuring The Devil Made Me Do It 2021 фййф ййуу йффй ethd фйуу уфуф Spiral From the Book of Saw 2021 фууу фйфф Cruella 2021 фйфй loki s01e01 йййу loki уфуу йфуй йуйй уффй уйуй ффйф ууфф йууу ууйу йуфй уфйу уффф ййфй йууф уйфф ddr йййй F9 2021 indycar etmovies фффу фйуф evo Xxx йуйф 
Warning! Use a V.P.N when Downloading Torrents!
Your IP Address is 3.236.118.7. Location United States
Your Internet Provider can see when you download torrents! Hide your IP Address with a V.P.N
ETTV warns: You should use V.P.N to hide your torrenting. HIDE ME NOW
ETTV Recommended TV Shows
WWE Friday Night SmackDown 2021 06 11 HDTV x264-NWCHD [TJET] torrent
NASCAR Camping World Truck Series 2021. R11. SpeedyCash.com 220. Weekend on FOX torrent
Black.Monday.S03E04.720p.WEB.H264-GGEZ torrent
The.Chi.S04E04.720p.WEB.h264-GOSSIP torrent
The.Girlfriend.Experience.S03E08.720p.WEB.H264-GGEZ torrent
The.Owl.House.S02E01.Separate.Tides.1080p.HULU.WEBRip.AAC2.0.H264-LAZY torrent
UFC.263.HDTV.H264.Fight-BB torrent
MasterChef.Australia.S13E40.720p.HDTV.x264-ORENJI torrent
Kingdom S01 2019 1080p 10bit NF WEBRip English AAC 5.1 x265 HEVC - MoviePirate - Telly torrent
WWE NXT TakeOver In Your House 2021 WEB h264-HEEL [TJET] torrent

ETTV Recommended SD
Wish.Dragon.2021.HDRip.XviD.AC3-EVO torrent
Night.Walk.2021.HDRip.XviD.AC3-EVO torrent
The.Unholy.2021.BRRip.XviD.AC3-EVO torrent
Untitled.Horror.Movie.2021.HDRip.XviD.AC3-EVO torrent

ETTV Recommended HD
Spiral: From the Book of Saw (2021) + Extras (1080p WEB-DL x265 HEVC 10bit EAC3 5.1 SAMPA) [QxR] torrent
The.Case.Against.Brooklyn.1958.(Film-Noir).1080p.BRRip.x264-Classics torrent
Spider-Man Homecoming (2017) 3D HSBS 1080p H264 DolbyD 5.1 👓 ©️nickarad torrent
Lethal Love Letter 2021 720p WEB HEVC x265 torrent

ETTV Recommended UHD
Leon.The.Professional.1994.EXTENDED.4K.HDR.2160p.BDRip Ita Eng Fre x265-NAHOM torrent
Wrath.of.Man.2021.2160p.HDR.mUHD.WebRip.HEVC.DDP5.1-DDR.mkv torrent
King.Kong.2005.EXTENDED.4K.HDR.2160p.BDRip Ita Eng x265-NAHOM torrent
Hunger Games 2012 BluRay 1080p  x265 DTS-HD MA 7.1 D0ct0rLew[SEV] torrent
Minority.Report.2002.4K.SDR.2160p.WEBDL Ita Eng x265-NAHOM torrent
Saw.2004.4K.HDR.2160p.BDRip Ita Eng x265-NAHOM torrent

ETTV Recommended Cam
Fast.And.Furious.9.2021. CAM NEW SOURCE CLEAN SomeCoontS torrent
A.Quiet.Place.Part.II.2021.TC720p.Clean.Cam.H264.AC3.WARRIORS torrent
The Hitmans Wifes Bodyguard (2021) 720p English HDCAM-Rip x264 AAC By Full4Movies torrent
Ascendant (2021) 720p HDCAM English New Movie x264 AAC By Full4Movies torrent

ETTV Recommended Foreign
Blindspotting (2018) BluRay 1080p.H264 Ita Eng AC3 5.1 Sub Ita Eng - realDMDJ torrent
Riders of Justice 2020 DANISH 720p BluRay HEVC x265-RMTeam torrent
Deliver Us From Evil 2020 Final Cut 720p BluRay HEVC X265-RMTeam torrent
Viaje.al.Cuarto.de.una.Madre.2018.720p.WEBRip.x264.AC3.HORiZON-ArtSubs torrent
Preparations.to.Be.Together.for.an.Unknown.Period.of.Time.2020.1080p.WEB-DL.x264.AC3.HORiZON-ArtSubs torrent
[blues-rock, southern rock] (2020) The Allman Brothers Band – Trouble No More (50th Anniversary Collection) [FLAC] [DarkAngie] torrent

ETTV Recommended Misc
[ambient, classical] (2021) Simon Goff - Vale [FLAC] [DarkAngie] torrent
The Rubettes - Gold -3-CD-(2021)-[FLAC-EAC]-[TFM] torrent
[blues-rock, southern rock] (2020) The Allman Betts Band - Bless Your Heart [FLAC] [DarkAngie] torrent
[indie-pop] (2021) Japanese Breakfast - Jubilee [FLAC] [DarkAngie] torrent
[indie-folk] (2021) Chloe Foy - Where Shall We Begin [FLAC] [DarkAngie] torrent
[blues-rock, southern rock] (2020) The Allman Brothers Band – Trouble No More (50th Anniversary Collection) [FLAC] [DarkAngie] torrent


Download Torrent "Lee Morgan - The Cooker (1958) (PBTHAL LP 24-96) [FLAC] vtwin88cube"

IMDB Details
Description:

N/A

Genre:

N/A

Download Torrent (Magnet)
Download Torrent (File)

Seeds: 76
Leechers: 15

Uploaded by:
vtwin88cube


Category:
Music > FLAC


Details
Title:Lee Morgan - The Cooker (1958) (PBTHAL LP 24-96) [FLAC] vtwin88cube
Description:
Lee Morgan
The Cooker (1958)
FLAC LOSSLESS 24bit-96kHz
PBTHAL Vinyl Rip


Not my rip. Any questions about the
eqipment used can be found in the
lineage text.


allmusic.com...

The trumpeter, then just 19, teams up with baritonist Pepper Adams, pianist Bobby Timmons, bassist Paul Chambers and drummer Philly Joe Jones for a particularly strong set that is highlighted by a lengthy and fiery "Night in Tunisia," "Lover Man" and a rapid rendition of "Just One of Those Things." Morgan plays remarkably well for his age (already ranking just below Dizzy Gillespie and Miles Davis), making this an essential acquisition.


foobar2000 1.4.3 / Dynamic Range Meter 1.1.1
log date: 2021-06-08 12:25:14

--------------------------------------------------------------------------------
Analyzed: Lee Morgan / The Cooker
--------------------------------------------------------------------------------

DR         Peak         RMS     Duration Track
--------------------------------------------------------------------------------
DR14      -2.54 dB   -18.74 dB      9:24 01-A Night In Tunisia
DR14      -1.00 dB   -18.27 dB      7:07 02-Heavy Dipper
DR15      -1.71 dB   -19.02 dB      7:20 03-Just One Of Those Things
DR15      -2.30 dB   -20.32 dB      6:53 04-Lover Man
DR15      -1.00 dB   -18.86 dB      8:16 05-New-Ma

Number of tracks:  5
Official DR value: DR14

Samplerate:        96000 Hz
Channels:          2
Bits per sample:   24
Bitrate:           2969 kbps
Codec:             FLAC




Support the artists...
buy it if you like it!

Sharing since 2010
Thanks for Seeding!
Cheers ;)
88
Category:Music > FLAC
Lang:Unknown/NA
Total Size:851 MB
Info Hash:e5311218b71f831ffd71cc2aa3b2edf1e858db16
Added By:vtwin88cube
Date Added:11-06-2021 04:05:48

  

Files

File List: 
 File Size
00.-Lee Morgan - The Cooker.m3u124.00 B
01.-A Night In Tunisia.flac209 MB
02.-Heavy Dipper.flac157 MB
03.-Just One Of Those Things.flac168 MB
04.-Lover Man.flac141 MB
05.-New-Ma.flac175 MB
DR14.txt1.03 kB
folder.jpg33.90 kB
lineage.txt563.00 B



Comments

There are currently no comments. Be the first one to write something !