nobody 2021 The handmaids tale s04e10 Deadliest Catch S17E09 fast and furious 9 etmovies The Misfits 2021 fear the walking dead infinite  loki episode 2 The Flash S07E13 infinite 2021 The Hitmans Wifes Bodyguard 2021 A Quiet Place Part II 2020 a quiet place 0 Cruel Summer S01E10 windows 11 the flash F9 2021 ethd Peter Rabbit 2 The Runaway 2021 Wwe A Quiet Place Part II 2021 Loki S01E02 Mr Inbetween s03e05 The Secret of Skinwalker Ranch S02E06 Fear the Walking Dead S06E16 vixen. club loki The Conjuring The Devil Made Me Do It 2021 a quiet place 2 A quiet place part 2  MasterChef Australia s13e42 etrg Wrath of Man 2021 hindi evo sunflower superman and lois tushy. first anal yts the family man Americas Got Talent S16E03 Superman and Lois S01E10 ddr Xtreme 2021 Hindi 2021 Awake 2021 The Blacklist S08E21 In the Heights 2021 Loki Hindi Below Deck Sailing Yacht s02e16 ettv The Handmaids Tale S04E09 Cruella 2021 f9 Godzilla vs. Kong 2021 All American S03E14 The Republic of Sarah S01E01 Loki S01E01 MR INBETWEEN malayalam Hitmans Wifes Bodyguard 2021 Superman  War of the Worlds S02E05 ita lupin Hells Kitchen S20E03 xxx Spiral From the Book of Saw 2021 Army of the Dead 2021 proper 
Warning! Use a V.P.N when Downloading Torrents!
Your IP Address is 34.236.187.155. Location United States
Your Internet Provider can see when you download torrents! Hide your IP Address with a V.P.N
ETTV warns: You should use V.P.N to hide your torrenting. HIDE ME NOW
ETTV Recommended TV Shows
Loki.S01E02.The.Variant.1080p.DSNP.WEB-DL.DDP5.1.H.264-EVO[ettv] torrent
Siesta.Key.S04E05.720p.HDTV.x264-SYNCOPY[ettv] torrent
The.Blacklist.S08E21.720p.HDTV.x264-SYNCOPY[ettv] torrent
MasterChef.US.S11E03.1080p.WEB.h264-BAE[ettv] torrent
Crime.Scene.Kitchen.S01E04.720p.WEB.h264-BAE[ettv] torrent
VICE.News.Tonight.2021.06.16.1080p.WEB.h264-BAE[ettv] torrent

ETTV Recommended SD
The.Space.Between.2021.HDRip.XviD.AC3-EVO torrent
Nobody.2021.BDRip.XviD.AC3-EVO torrent
Faraway.Eyes.2021.HDRip.XviD.AC3-EVO torrent
Supernova.2021.BRRip.XviD.AC3-EVO torrent

ETTV Recommended HD
Spiral: From the Book of Saw (2021) + Extras (1080p WEB-DL x265 HEVC 10bit EAC3 5.1 SAMPA) [QxR] torrent
Secrets.Of.A.Gold.Digger.Killer.2021.LIFETIME.720p.WEB-DL.AAC2.0.H264-LBR torrent
Godzilla vs Kong 2021 1080p BluRay x264 DTS - 5-1  KINGDOM-RG torrent
Demon Slayer The Movie Mugen Train.2021.1080p.Bluray.DTS-HD.MA.5.1.X264-EVO[ettv] torrent

ETTV Recommended UHD
Leon.The.Professional.1994.EXTENDED.4K.HDR.2160p.BDRip Ita Eng Fre x265-NAHOM torrent
Wrath.of.Man.2021.2160p.HDR.mUHD.WebRip.HEVC.DDP5.1-DDR.mkv torrent
King.Kong.2005.EXTENDED.4K.HDR.2160p.BDRip Ita Eng x265-NAHOM torrent
Hunger Games 2012 BluRay 1080p  x265 DTS-HD MA 7.1 D0ct0rLew[SEV] torrent
Minority.Report.2002.4K.SDR.2160p.WEBDL Ita Eng x265-NAHOM torrent
Saw.2004.4K.HDR.2160p.BDRip Ita Eng x265-NAHOM torrent

ETTV Recommended Cam
Fast.And.Furious.9.2021. CAM NEW SOURCE CLEAN SomeCoontS torrent
A.Quiet.Place.Part.II.2021.TC720p.Clean.Cam.H264.AC3.WARRIORS torrent
The Hitmans Wifes Bodyguard (2021) 720p English HDCAM-Rip x264 AAC By Full4Movies torrent
Ascendant (2021) 720p HDCAM English New Movie x264 AAC By Full4Movies torrent

ETTV Recommended Foreign
Snitch (2013) L'Infiltrato - BluRay 1080p.H264 Ita Eng AC3 5.1 Sub Ita Eng - realDMDJ torrent
The Bounty Hunter 2010 x264 720p Esub BluRay Dual Audio English Hindi THE GOPI SAHI torrent
Train to Busan 2 Peninsula 2020 1080p 10bit BluRay Hindi English AAC 5.1 x265 HEVC - MoviePirate - Telly.mkv torrent
Operation Java (2021) [Hindi Dub] 720p WEB-DLRip MelbetCinema torrent
Beyond.The.Rave.2008.480p.DvdRip.With.Special.Features.H264.AC3.Will1869 torrent
Murder Bury Win (2020) 720p HDRip [Hindi-Sub] x264 1XBET torrent

ETTV Recommended Misc
Damn Yankees - Damn Yankees (1990) (PBTHAL LP 24-96) [FLAC] vtwin88cube torrent
Ted Nugent Cat Scratch Fever Mp3 Album 1977 (ETTV) Mp3~320 kbps Beats⭐ torrent
Desmond Dekker - Halfway to Paradise (2021) FLAC [PMEDIA] ⭐️ torrent
VA - Now Country Vol. 14 (2021) Mp3 320kbps [PMEDIA] ⭐️ torrent
[indie-rock] (2021) The National - Sad Songs for Dirty Lovers ( Remaster) [FLAC] [DarkAngie] torrent
Leon Russell - Leon Russell (1970) (PBTHAL LP 24-44) [FLAC] vtwin88cube torrent


Download Torrent "Dynamo : Magician Impossible - Season 01 S01 [2011] COMPLETE 1080p BDRip x2..."

IMDB Details
Description:

Magician to the stars, Dynamo, travels the globe astounding everyone he meets. Dynamo has worked with the likes of Will Smith, Lindsay Lohan, Jay-Z and Russell Brand, been seen on Friday Night with Jonathan Ross and Comic Relief 2011, and now he comes to Watch with this completely exclusive new series featuring glamorous locations, mind-blowing stunts and A-list celebrities. This is the story of an ordinary boy from Bradford living an extraordinary life. Like his dear grandfather before him, Dynamo grew up practicing precision card-handling and developing powerful magical skills. In Dynamo: Magician Impossible, his very first television series, the 28-year-old travels the globe as the unassuming anti-hero who just happens to astound everyone he meets, whether international footballer or Hollywood actor.

Genre:

Magic, Entertainment, Documentary

Download Torrent (Magnet)
Download Torrent (File)

Seeds: 24
Leechers: 25

Uploaded by:
D0ct0rLew


Category:
TV > HEVC/x265 (Super High Quality, Small size, high CPU usage)


Details
Title:Dynamo : Magician Impossible - Season 01 S01 [2011] COMPLETE 1080p BDRip x2...
Description:



Screenshot's






Media Information
General
Unique ID                   : 20601440672532035994483388599249720745 (0xF7FB1723463E86FE9B00F07A8E8D5A9)
Complete name               : Dynamo - Magician Impossible - S01.E01 1080p BDRip x265 AAC 2.0 Kira [SEV].mkv
Format                      : Matroska
Format version              : Version 4
File size                   : 2.93 GiB
Duration                    : 43 min 5 s
Overall bit rate            : 9 731 kb/s
Movie name                  : Dynamo : Magician Impossible : S01.E01
Encoded date                : UTC 2021-05-20 00:48:40
Writing application         : mkvmerge v56.1.0 ('My Friend') 64-bit
Writing library             : libebml v1.4.2 + libmatroska v1.6.4

Video
ID                          : 1
Format                      : HEVC
Format/Info                 : High Efficiency Video Coding
Format profile              : Main [email protected]@Main
Codec ID                    : V_MPEGH/ISO/HEVC
Duration                    : 43 min 5 s
Bit rate                    : 9 094 kb/s
Width                       : 1 920 pixels
Height                      : 1 080 pixels
Display aspect ratio        : 16:9
Frame rate mode             : Constant
Frame rate                  : 25.000 FPS
Color space                 : YUV
Chroma subsampling          : 4:2:0
Bit depth                   : 10 bits
Bits/(Pixel*Frame)          : 0.175
Stream size                 : 2.74 GiB (93%)
Title                       : Dynamo : Magician Impossible : S01.E01
Writing library             : x265 3.5+9-bf91444e0:[Windows][MSVC 1928][64 bit] 10bit
Encoding settings           : cpuid=1111039 / frame-threads=2 / numa-pools=4 / wpp / no-pmode / no-pme / no-psnr / no-ssim / log-level=2 / input-csp=1 / input-res=1920x1080 / interlace=0 / total-frames=64630 / level-idc=0 / high-tier=1 / uhd-bd=0 / ref=5 / no-allow-non-conformance / no-repeat-headers / annexb / no-aud / no-eob / no-eos / no-hrd / info / hash=0 / no-temporal-layers / open-gop / min-keyint=25 / keyint=250 / gop-lookahead=0 / bframes=16 / b-adapt=2 / b-pyramid / bframe-bias=0 / rc-lookahead=100 / lookahead-slices=0 / scenecut=40 / hist-scenecut=0 / radl=0 / no-splice / no-intra-refresh / ctu=64 / min-cu-size=8 / no-rect / no-amp / max-tu-size=32 / tu-inter-depth=4 / tu-intra-depth=4 / limit-tu=4 / rdoq-level=2 / dynamic-rd=0.00 / no-ssim-rd / signhide / no-tskip / nr-intra=0 / nr-inter=0 / no-constrained-intra / no-strong-intra-smoothing / max-merge=4 / limit-refs=1 / limit-modes / me=3 / subme=7 / merange=92 / temporal-mvp / no-frame-dup / no-hme / weightp / weightb / no-analyze-src-pics / deblock=0:0 / no-sao / no-sao-non-deblock / rd=6 / selective-sao=0 / no-early-skip / rskip / no-fast-intra / no-tskip-fast / no-cu-lossless / b-intra / no-splitrd-skip / rdpenalty=0 / psy-rd=1.00 / psy-rdoq=1.00 / no-rd-refine / no-lossless / cbqpoffs=0 / crqpoffs=0 / rc=crf / crf=20.0 / qcomp=0.60 / qpstep=4 / stats-write=0 / stats-read=0 / ipratio=1.40 / pbratio=1.30 / aq-mode=4 / aq-strength=1.00 / cutree / zone-count=0 / no-strict-cbr / qg-size=32 / no-rc-grain / qpmax=69 / qpmin=0 / no-const-vbv / sar=0 / overscan=0 / videoformat=5 / range=0 / colorprim=2 / transfer=2 / colormatrix=2 / chromaloc=0 / display-window=0 / cll=0,0 / min-luma=0 / max-luma=1023 / log2-max-poc-lsb=8 / vui-timing-info / vui-hrd-info / slices=1 / no-opt-qp-pps / no-opt-ref-list-length-pps / no-multi-pass-opt-rps / scenecut-bias=0.05 / hist-threshold=0.03 / no-opt-cu-delta-qp / no-aq-motion / no-hdr10 / no-hdr10-opt / no-dhdr10-opt / no-idr-recovery-sei / analysis-reuse-level=0 / analysis-save-reuse-level=0 / analysis-load-reuse-level=0 / scale-factor=0 / refine-intra=0 / refine-inter=0 / refine-mv=1 / refine-ctu-distortion=0 / no-limit-sao / ctu-info=0 / no-lowpass-dct / refine-analysis-type=0 / copy-pic=1 / max-ausize-factor=1.0 / no-dynamic-refine / no-single-sei / no-hevc-aq / no-svt / no-field / qp-adaptation-range=1.00 / scenecut-aware-qp=0conformance-window-offsets / right=0 / bottom=0 / decoder-max-rate=0 / no-vbv-live-multi-pass
Language                    : English
Default                     : Yes
Forced                      : No

Audio
ID                          : 2
Format                      : AAC LC
Format/Info                 : Advanced Audio Codec Low Complexity
Codec ID                    : A_AAC-2
Duration                    : 43 min 5 s
Bit rate                    : 576 kb/s
Channel(s)                  : 2 channels
Channel layout              : L R
Sampling rate               : 48.0 kHz
Frame rate                  : 46.875 FPS (1024 SPF)
Compression mode            : Lossy
Delay relative to video     : 9 ms
Stream size                 : 178 MiB (6%)
Title                       : English BD AAC 2.0 @ 576 Kbps
Language                    : English
Default                     : Yes
Forced                      : No

Text
ID                          : 3
ID in the original source m : 4608 (0x1200)
Format                      : PGS
Codec ID                    : S_HDMV/PGS
Codec ID/Info               : Picture based subtitle format used on BDs/HD-DVDs
Duration                    : 41 min 46 s
Bit rate                    : 60.1 kb/s
Count of elements           : 1284
Stream size                 : 18.0 MiB (1%)
Title                       : English SDH BD PGS Sub
Language                    : English
Default                     : Yes
Forced                      : No
Original source medium      : Blu-ray

Menu
00:00:00.000                : Chapter 01
00:04:42.720                : Chapter 02
00:09:13.800                : Chapter 03
00:20:33.040                : Chapter 04
00:26:16.600                : Chapter 05
00:38:39.560                : Chapter 06


Source Information
Dynamo.Magician.Impossible.S01.1080i.BluRay.AVC.DTS-HD.MA.2.0-Blaat (41.9 GB)
General
Unique ID                   : 188867030213550910586516062158537768661 (0x8E167786BB0C3A3CD94E55AD7F523ED5)
Complete name               : Dynamo.Magician.Impossible.S01.E01.1080i.BluRay.REMUX.AVC.DTS-HD.MA.2.0-Blaat.mkv
Format                      : Matroska
Format version              : Version 2
File size                   : 8.49 GiB
Duration                    : 43 min 5 s
Overall bit rate mode       : Variable
Overall bit rate            : 28.2 Mb/s
Encoded date                : UTC 2021-05-16 04:16:42
Writing application         : MakeMKV v1.15.0 win(x64-release)
Writing library             : libmakemkv v1.15.0 (1.3.5/1.4.7) win(x64-release)

Video
ID                          : 1
ID in the original source m : 4113 (0x1011)
Format                      : AVC
Format/Info                 : Advanced Video Codec
Format profile              : [email protected]
Format settings             : CABAC / 3 Ref Frames
Format settings, CABAC      : Yes
Format settings, Reference  : 3 frames
Codec ID                    : V_MPEG4/ISO/AVC
Duration                    : 43 min 5 s
Bit rate mode               : Variable
Bit rate                    : 26.0 Mb/s
Maximum bit rate            : 40.0 Mb/s
Width                       : 1 920 pixels
Height                      : 1 080 pixels
Display aspect ratio        : 16:9
Frame rate mode             : Constant
Frame rate                  : 25.000 FPS
Color space                 : YUV
Chroma subsampling          : 4:2:0
Bit depth                   : 8 bits
Scan type                   : Progressive
Bits/(Pixel*Frame)          : 0.502
Stream size                 : 7.82 GiB (92%)
Writing library             : x264 core 115 r1995 c1e60b9
Encoding settings           : cabac=1 / ref=4 / deblock=1:-2:-2 / analyse=0x3:0x133 / me=umh / subme=10 / psy=1 / psy_rd=1.00:0.25 / mixed_ref=1 / me_range=24 / chroma_me=1 / trellis=2 / 8x8dct=1 / cqm=0 / deadzone=6,6 / fast_pskip=1 / chroma_qp_offset=-4 / threads=12 / sliced_threads=0 / slices=4 / nr=0 / decimate=0 / interlaced=fake / bluray_compat=1 / constrained_intra=0 / bframes=3 / b_pyramid=1 / b_adapt=2 / b_bias=0 / direct=3 / weightb=1 / open_gop=1 / weightp=0 / keyint=25 / keyint_min=2 / scenecut=40 / intra_refresh=0 / rc_lookahead=25 / rc=2pass / mbtree=1 / bitrate=26000 / ratetol=1.0 / qcomp=0.80 / qpmin=0 / qpmax=69 / qpstep=4 / cplxblur=20.0 / qblur=0.5 / vbv_maxrate=40000 / vbv_bufsize=30000 / nal_hrd=vbr / ip_ratio=1.10 / aq=1:0.50
Language                    : English
Default                     : No
Forced                      : No
Color range                 : Limited
Color primaries             : BT.709
Transfer characteristics    : BT.709
Matrix coefficients         : BT.709
Original source medium      : Blu-ray

Audio
ID                          : 2
ID in the original source m : 4352 (0x1100)
Format                      : DTS XLL
Format/Info                 : Digital Theater Systems
Commercial name             : DTS-HD Master Audio
Codec ID                    : A_DTS
Duration                    : 43 min 5 s
Bit rate mode               : Variable
Bit rate                    : 2 166 kb/s
Channel(s)                  : 2 channels
Sampling rate               : 48.0 kHz
Frame rate                  : 93.750 FPS (512 SPF)
Bit depth                   : 24 bits
Compression mode            : Lossless
Stream size                 : 668 MiB (8%)
Title                       : Stereo
Language                    : English
Default                     : Yes
Forced                      : No
Original source medium      : Blu-ray

Text
ID                          : 3
ID in the original source m : 4608 (0x1200)
Format                      : PGS
Codec ID                    : S_HDMV/PGS
Codec ID/Info               : Picture based subtitle format used on BDs/HD-DVDs
Duration                    : 41 min 46 s
Bit rate                    : 60.1 kb/s
Count of elements           : 1284
Stream size                 : 18.0 MiB (0%)
Language                    : English
Default                     : Yes
Forced                      : No
Original source medium      : Blu-ray

Menu
00:00:00.000                : en:Chapter 01
00:04:42.720                : en:Chapter 02
00:09:13.800                : en:Chapter 03
00:20:33.040                : en:Chapter 04
00:26:16.600                : en:Chapter 05
00:38:39.560                : en:Chapter 06


We have no issue with individuals posting or re-uploading our torrents on a platform we aren't on. However, if this is something you'd like to do, please do so in a 'as-is' format. We ask that you do not create a new torrent, include all descriptions you see above including the SEV logo, tags, notes and screenshots. If you'd like to become a permanent poster on a website we don't post to, feel free to get in contact with a Sublime Encoded Video member.

We are recruiting/training new members for SEV & seedbox providers as well as people to help out with subtitles.
As you already know, we deliver quality, so you know the standard.
If you're interested, feel free to contact any of the team members.


Category:TV > HEVC/x265
Lang:English  English
Total Size:11.70 GB
Info Hash:e367c33398aef7634cdd99f711c2596971ee7cec
Added By:D0ct0rLew
Date Added:11-06-2021 05:42:57

Files

File List: 
 File Size
Dynamo - Magician Impossible - S01.E01 1080p BDRip x265 AAC 2.0 Kira [SEV].mkv2.93 GB
Dynamo - Magician Impossible - S01.E02 1080p BDRip x265 AAC 2.0 Kira [SEV].mkv2.71 GB
Dynamo - Magician Impossible - S01.E03 1080p BDRip x265 AAC 2.0 Kira [SEV].mkv2.30 GB
Dynamo - Magician Impossible - S01.E04 1080p BDRip x265 AAC 2.0 Kira [SEV].mkv2.47 GB
Extras/Dynamo - Magician Impossible - Interview with Dynamo 1080p BDRip x265 AAC 2.0 Kira [SEV].mkv1.26 GB
Extras/[BD Menu] Dynamo - Magician Impossible - Season 01 [2011].mkv29 MB



Comments

There are currently no comments. Be the first one to write something !