nobody 2021 The handmaids tale s04e10 Deadliest Catch S17E09 fast and furious 9 etmovies The Misfits 2021 fear the walking dead infinite  loki episode 2 The Flash S07E13 infinite 2021 The Hitmans Wifes Bodyguard 2021 A Quiet Place Part II 2020 a quiet place 0 Cruel Summer S01E10 windows 11 the flash F9 2021 ethd Peter Rabbit 2 The Runaway 2021 Wwe A Quiet Place Part II 2021 Loki S01E02 Mr Inbetween s03e05 The Secret of Skinwalker Ranch S02E06 Fear the Walking Dead S06E16 vixen. club loki The Conjuring The Devil Made Me Do It 2021 a quiet place 2 A quiet place part 2  MasterChef Australia s13e42 etrg Wrath of Man 2021 hindi evo sunflower superman and lois tushy. first anal yts the family man Americas Got Talent S16E03 Superman and Lois S01E10 ddr Xtreme 2021 Hindi 2021 Awake 2021 The Blacklist S08E21 In the Heights 2021 Loki Hindi Below Deck Sailing Yacht s02e16 ettv The Handmaids Tale S04E09 Cruella 2021 f9 Godzilla vs. Kong 2021 All American S03E14 The Republic of Sarah S01E01 Loki S01E01 MR INBETWEEN malayalam Hitmans Wifes Bodyguard 2021 Superman  War of the Worlds S02E05 ita lupin Hells Kitchen S20E03 xxx Spiral From the Book of Saw 2021 Army of the Dead 2021 proper 
Warning! Use a V.P.N when Downloading Torrents!
Your IP Address is 34.236.187.155. Location United States
Your Internet Provider can see when you download torrents! Hide your IP Address with a V.P.N
ETTV warns: You should use V.P.N to hide your torrenting. HIDE ME NOW
ETTV Recommended TV Shows
Loki.S01E02.The.Variant.1080p.DSNP.WEB-DL.DDP5.1.H.264-EVO[ettv] torrent
Siesta.Key.S04E05.720p.HDTV.x264-SYNCOPY[ettv] torrent
The.Blacklist.S08E21.720p.HDTV.x264-SYNCOPY[ettv] torrent
MasterChef.US.S11E03.1080p.WEB.h264-BAE[ettv] torrent
Crime.Scene.Kitchen.S01E04.720p.WEB.h264-BAE[ettv] torrent
VICE.News.Tonight.2021.06.16.1080p.WEB.h264-BAE[ettv] torrent

ETTV Recommended SD
The.Space.Between.2021.HDRip.XviD.AC3-EVO torrent
Nobody.2021.BDRip.XviD.AC3-EVO torrent
Faraway.Eyes.2021.HDRip.XviD.AC3-EVO torrent
Supernova.2021.BRRip.XviD.AC3-EVO torrent

ETTV Recommended HD
Spiral: From the Book of Saw (2021) + Extras (1080p WEB-DL x265 HEVC 10bit EAC3 5.1 SAMPA) [QxR] torrent
Secrets.Of.A.Gold.Digger.Killer.2021.LIFETIME.720p.WEB-DL.AAC2.0.H264-LBR torrent
Godzilla vs Kong 2021 1080p BluRay x264 DTS - 5-1  KINGDOM-RG torrent
Demon Slayer The Movie Mugen Train.2021.1080p.Bluray.DTS-HD.MA.5.1.X264-EVO[ettv] torrent

ETTV Recommended UHD
Leon.The.Professional.1994.EXTENDED.4K.HDR.2160p.BDRip Ita Eng Fre x265-NAHOM torrent
Wrath.of.Man.2021.2160p.HDR.mUHD.WebRip.HEVC.DDP5.1-DDR.mkv torrent
King.Kong.2005.EXTENDED.4K.HDR.2160p.BDRip Ita Eng x265-NAHOM torrent
Hunger Games 2012 BluRay 1080p  x265 DTS-HD MA 7.1 D0ct0rLew[SEV] torrent
Minority.Report.2002.4K.SDR.2160p.WEBDL Ita Eng x265-NAHOM torrent
Saw.2004.4K.HDR.2160p.BDRip Ita Eng x265-NAHOM torrent

ETTV Recommended Cam
Fast.And.Furious.9.2021. CAM NEW SOURCE CLEAN SomeCoontS torrent
A.Quiet.Place.Part.II.2021.TC720p.Clean.Cam.H264.AC3.WARRIORS torrent
The Hitmans Wifes Bodyguard (2021) 720p English HDCAM-Rip x264 AAC By Full4Movies torrent
Ascendant (2021) 720p HDCAM English New Movie x264 AAC By Full4Movies torrent

ETTV Recommended Foreign
Snitch (2013) L'Infiltrato - BluRay 1080p.H264 Ita Eng AC3 5.1 Sub Ita Eng - realDMDJ torrent
The Bounty Hunter 2010 x264 720p Esub BluRay Dual Audio English Hindi THE GOPI SAHI torrent
Train to Busan 2 Peninsula 2020 1080p 10bit BluRay Hindi English AAC 5.1 x265 HEVC - MoviePirate - Telly.mkv torrent
Operation Java (2021) [Hindi Dub] 720p WEB-DLRip MelbetCinema torrent
Beyond.The.Rave.2008.480p.DvdRip.With.Special.Features.H264.AC3.Will1869 torrent
Murder Bury Win (2020) 720p HDRip [Hindi-Sub] x264 1XBET torrent

ETTV Recommended Misc
Damn Yankees - Damn Yankees (1990) (PBTHAL LP 24-96) [FLAC] vtwin88cube torrent
Ted Nugent Cat Scratch Fever Mp3 Album 1977 (ETTV) Mp3~320 kbps Beats⭐ torrent
Desmond Dekker - Halfway to Paradise (2021) FLAC [PMEDIA] ⭐️ torrent
VA - Now Country Vol. 14 (2021) Mp3 320kbps [PMEDIA] ⭐️ torrent
[indie-rock] (2021) The National - Sad Songs for Dirty Lovers ( Remaster) [FLAC] [DarkAngie] torrent
Leon Russell - Leon Russell (1970) (PBTHAL LP 24-44) [FLAC] vtwin88cube torrent


Download Torrent "The Who - Odds & Sods (1974) (RSD 2020 PBTHAL LP 24-96) [FLAC] vtwin88c..."

IMDB Details
Description:

N/A

Genre:

N/A

Download Torrent (Magnet)
Download Torrent (File)

Seeds: 119
Leechers: 31

Uploaded by:
vtwin88cube


Category:
Music > FLAC


Details
Title:The Who - Odds & Sods (1974) (RSD 2020 PBTHAL LP 24-96) [FLAC] vtwin88c...
Description:
The Who
Odds & Sods (1974)
FLAC LOSSLESS 24bit-96kHz
PBTHAL Vinyl Rip
RSD 2020


Not my rip. Any questions about the
eqipment used can be found in the
lineage text.


allmusic.com...

Odds & Sods, a compilation of outtakes and rarities from the Who's first decade, is a rather jumpy listen that harbors few songs that could be termed top of the line. Also, since its 1974 release, several of the tracks have been issued on other compilations. Setting your expectations at the appropriate level, however, you'll find much of this worthwhile. "Pure and Easy," "Naked Eye," and "Long Live Rock" were all concert favorites in the '70s, "Glow Girl" introduced some riffs that would resurface in Tommy, and "Postcard," John Entwistle's tale of rock life on the road, was one of his better compositions. This also has their very first single, "I'm the Face," recorded in 1964 when the group were known as the High Numbers.


foobar2000 1.4.3 / Dynamic Range Meter 1.1.1
log date: 2021-06-10 10:49:03

--------------------------------------------------------------------------------
Analyzed: The Who / Odds & Sods
--------------------------------------------------------------------------------

DR         Peak         RMS     Duration Track
--------------------------------------------------------------------------------
DR12      -1.65 dB   -16.17 dB      3:36 01-Postcard
DR12      -1.00 dB   -15.28 dB      4:11 02-Now I'm A Farmer
DR13      -1.44 dB   -16.06 dB      4:04 03-Put The Money Down
DR11      -1.84 dB   -15.41 dB      2:18 04-Little Billy
DR13      -1.91 dB   -16.43 dB      4:25 05-Too Much Of Anything
DR11      -1.04 dB   -15.28 dB      2:14 06-Glow Girl
DR11      -1.00 dB   -15.27 dB      5:28 07-Pure And Easy
DR11      -4.14 dB   -16.64 dB      3:07 08-Faith In Something Bigger
DR11      -2.21 dB   -15.63 dB      2:37 09-I'm The Face
DR12      -1.90 dB   -16.25 dB      5:20 10-Naked Eye
DR12      -1.42 dB   -15.08 dB      3:59 11-Long Live Rock
DR12      -3.48 dB   -16.94 dB      2:09 12-Zoot Suit
DR12      -3.79 dB   -18.70 dB      2:12 13-Here 'Tis
DR10      -2.17 dB   -14.96 dB      2:13 14-Leaving Here
DR11      -3.07 dB   -15.00 dB      2:28 15-Baby Don't You Do It
DR11      -1.00 dB   -15.02 dB      2:47 16-Young Man Blues
DR11      -1.89 dB   -14.64 dB      2:28 17-Dogs Part Two
DR12      -2.35 dB   -16.36 dB      2:28 18-Here For More
DR12      -1.05 dB   -14.46 dB      4:00 19-The Seeker
DR11      -4.24 dB   -16.98 dB      3:34 20-Heaven And Hell
DR13      -2.69 dB   -18.38 dB      4:10 21-I Don't Even Know Myself
DR11      -3.64 dB   -16.30 dB      3:31 22-When I Was A Boy
DR12      -3.28 dB   -17.41 dB      3:07 23-Waspman
DR12      -2.98 dB   -16.44 dB      3:03 24-We Close Tonight
DR12      -1.00 dB   -16.23 dB      4:43 25-Water

Number of tracks:  25
Official DR value: DR12

Samplerate:        96000 Hz
Channels:          2
Bits per sample:   24
Bitrate:           2877 kbps
Codec:             FLAC




Support the artists...
buy it if you like it!

Sharing since 2010
Thanks for Seeding!
Cheers ;)
88
Category:Music > FLAC
Lang:Unknown/NA
Total Size:1.65 GB
Info Hash:f845af1306707034e76d1a6115afacd2d0495a84
Added By:vtwin88cube
Date Added:11-06-2021 05:52:27

  

Files

File List: 
 File Size
00.-The Who - Odds & Sods.m3u615.00 B
01.-Postcard.flac76 MB
02.-Now I'm A Farmer.flac86 MB
03.-Put The Money Down.flac84 MB
04.-Little Billy.flac49 MB
05.-Too Much Of Anything.flac93 MB
06.-Glow Girl.flac47 MB
07.-Pure And Easy.flac114 MB
08.-Faith In Something Bigger.flac64 MB
09.-I'm The Face.flac55 MB
10.-Naked Eye.flac109 MB
11.-Long Live Rock.flac86 MB
12.-Zoot Suit.flac45 MB
13.-Here 'Tis.flac47 MB
14.-Leaving Here.flac24 MB
15.-Baby Don't You Do It.flac28 MB
16.-Young Man Blues.flac61 MB
17.-Dogs Part Two.flac53 MB
18.-Here For More.flac52 MB
19.-The Seeker.flac89 MB
20.-Heaven And Hell.flac38 MB
21.-I Don't Even Know Myself.flac86 MB
22.-When I Was A Boy.flac73 MB
23.-Waspman.flac66 MB
24.-We Close Tonight.flac65 MB
25.-Water.flac97 MB
DR12.txt2.19 kB
folder.jpg67.53 kB
lineage.txt556.00 B



Comments

There are currently no comments. Be the first one to write something !