Rurouni Kenshin ettv Evil S02E01 sunflower Xxx f9 Jagame Thandhiram Peter Rabbit 2 The Runaway 2021 infinite Wicked Tuna S10E17 The Conjuring The Devil Made Me Do It 2021 a quiet place part ii 2020 ddr a quiet place 2021 etmovies 90 Day Fiance Happily Ever After S06E09 lucifer  ita rick and morty season 5 malayalam wwe legends of tomorrow Kevin Can Fk Himself S01E01 Batwoman  formula 1 Batwoman S02E17 Van Helsing S05E11 MasterChef Australia S13E46 Nobody 2021 Windows 11 Wrath of Man 2021 the flash The Hitmans Wifes Bodyguard 2021 Fatherhood 2021 Luca ethd Evil  A Quiet Place Part II 2021 KEVIN CAN FK HIMSELF s01e02 sherni rick and morty evo A quiet place 2 hindi rick and morty s05e01 the family man Last Week Tonight with John Oliver s08e16 keeping up with the kardashians s20e14 tamil etrg A Quiet Place Part II Infinite 2021 a quiet place motogp Time Loki s01e01 Hitmans Wifes Bodyguard 2021 0 cruella 2021 fast and furious 9 2160p a quiet place part 2 The Misfits 2021 yts ufc Loki s01e02 F9 2021 luca 2021 Fear the walking dead hindi 2021  loki war of the worlds 
Warning! Use a V.P.N when Downloading Torrents!
Your IP Address is 18.204.2.146. Location United States
Your Internet Provider can see when you download torrents! Hide your IP Address with a V.P.N
ETTV warns: You should use V.P.N to hide your torrenting. HIDE ME NOW
ETTV Recommended TV Shows
Nurses.S02E01.XviD-AFG[ettv] torrent
AEW DARK Elevation 21st June 2021 WEBRip h264-TJ [TJET] torrent
WWE Monday Night Raw 2021 06 21 HDTV x264-NWCHD [TJET] torrent
Hells.Kitchen.US.S20E04.WEB.h264-BAE[ettv] torrent
American.Dad.S17E10.720p.WEBRip.x264-BAE[ettv] torrent
Why.Women.Kill.S02E04.Scene.Of.The.Crime.XviD-AFG[ettv] torrent

ETTV Recommended SD
Entanglement.2021.HDRip.XviD.AC3-EVO torrent
Siberia.2020.BRRip.XviD.AC3-EVO torrent
The.Paper.Tigers.2021.BRRip.XviD.AC3-EVO torrent
Me.Myself.and.Di.2021.HDRip.XviD.AC3-EVO torrent

ETTV Recommended HD
The.Lovebirds.2020.THEATRICAL.1080p.BluRay.DTS-HD.MA.5.1.x264-EVO[ettv] torrent
Get Rich or Die Tryin\' (2005) + Extras (1080p BluRay x265 HEVC 10bit EAC3 5.1 English + German + French + Japanese SAMPA) [QxR] torrent
Underworld Blood Wars (2016) 3D HSBS 1080p H264 DolbyD 5.1 ūüĎď ¬©ÔłŹnickarad torrent
The Rising Hawk (2019)[BDRemux 1080p x 264 by alE13 AC3/DTS][Audio Eng\PL & Sub Eng][Eng] torrent

ETTV Recommended UHD
End.of.Watch.2012.BluRay.1080p.DTS-HD.MA.5.1.AVC.REMUX-FraMeSToR torrent
12.Angry.Men.1957.BluRay.1080p.DTS-HD.MA.1.0.AVC.REMUX-FraMeSToR.mkv torrent
Aliens.1986.Special.Edition.BluRay.1080p.DTS-HD.MA.5.1.AVC.REMUX-FraMeSToR.mkv torrent
Children.of.Men.2006.BluRay.1080p.DTS-HD.MA.5.1.AVC.REMUX-FraMeSToR torrent
Chronicle.Directors.Cut.2012.BluRay.1080p.DTS-HD.MA.5.1.AVC.REMUX-FraMeSToR torrent
Citizen.Kane.1941.BluRay.1080p.DTS-HD.MA.1.0.AVC.REMUX-FraMeSToR torrent

ETTV Recommended Cam
Fast.And.Furious.9.2021. CAM NEW SOURCE CLEAN SomeCoontS torrent
A.Quiet.Place.Part.II.2021.TC720p.Clean.Cam.H264.AC3.WARRIORS torrent
The Hitmans Wifes Bodyguard (2021) 720p English HDCAM-Rip x264 AAC By Full4Movies torrent
Ascendant (2021) 720p HDCAM English New Movie x264 AAC By Full4Movies torrent

ETTV Recommended Foreign
Rurouni.Kenshin.The.Final.2021.1080p.NF.WEB-DL.DDP5.1.x264-EVO[ettv] torrent
The Night Beyond The Tricornered Window 2021 720p Japanese BluRay H264 BONE torrent
Les.Miserables.2012.iTA.ENG.AC3.SUB.iTA.ENG.BluRay.HEVC.1080p.x265.jeddak-MIRCrew torrent
Hidden.Away.[Volevo.Nascondermi].2020.BluRay.1080p.x264.AC3.HORiZON-ArtSubs torrent
The Great Mouse Detective 1986 x264 1080p Esub English Hindi THE GOPI SAHI torrent
Color Rush 2021 720p Korean WEB-DL H264 BONE torrent

ETTV Recommended Misc
This Is M√∂tley Cr√ľe Playlist Spotify (ETTV) Mp3~320  kbps Beats‚≠ź torrent
Micheal Bublé - Call Me Irresponsible (2007) Flac torrent
Nemesea - In Control (2007) Flac torrent
 Forrest Gump Soundtarck Mp-3 1994 torrent
[folk-rock, pop] (2021) Norma Tanega - Walkin' My Cat Named Dog [Expanded Edition] [FLAC] [DarkAngie] torrent
[alt-country, southern rock] (2020) Ryan Hamilton and the Harlequin Ghosts - Nowhere to Go but Everywhere [FLAC] [DarkAngie] torrent


Download Torrent "Cherry (2021) [Hindi Dub] 1080p WEBRip MelbetCinema"

IMDB Details
Description:

Cherry drifts from college dropout to army medic in Iraq - anchored only by his true love, Emily. But after returning from the war with PTSD, his life spirals into drugs and crime as he struggles to find his place in the world.

Genre:

Crime, Drama

Download Torrent (Magnet)
Download Torrent (File)

Seeds: 25
Leechers: 0

Uploaded by:
MelbetCinema7


Category:
Movies > HD 1080p (Great for large screens)


Details
Title:Cherry (2021) [Hindi Dub] 1080p WEBRip MelbetCinema
Description:


https://www.imdb.com/title/tt9130508






Video
ID                                       : 1
Format                                   : AVC
Format/Info                              : Advanced Video Codec
Format profile¬† ¬† ¬† ¬† ¬† ¬† ¬† ¬† ¬† ¬† ¬† ¬† ¬† ¬†: [email protected]
Format settings                          : CABAC / 4 Ref Frames
Format settings, CABAC                   : Yes
Format settings, Reference frames        : 4 frames
Codec ID                                 : V_MPEG4/ISO/AVC
Duration                                 : 2 h 22 min
Bit rate                                 : 3 975 kb/s
Width                                    : 1 918 pixels
Height                                   : 804 pixels
Display aspect ratio                     : 2.40:1
Frame rate mode                          : Constant
Frame rate                               : 23.976 (24000/1001) FPS
Color space                              : YUV
Chroma subsampling                       : 4:2:0
Bit depth                                : 8 bits
Scan type                                : Progressive
Bits/(Pixel*Frame)                       : 0.108
Stream size                              : 3.96 GiB (95%)
Default                                  : Yes
Forced                                   : No
Color range                              : Limited
Color primaries                          : BT.709
Transfer characteristics                 : BT.709
Matrix coefficients                      : BT.709

Audio
ID                                       : 2
Format                                   : AAC LC
Format/Info                              : Advanced Audio Codec Low Complexity
Codec ID                                 : A_AAC-2
Duration                                 : 2 h 22 min
Bit rate                                 : 192 kb/s
Channel(s)                               : 2 channels
Channel layout                           : L R
Sampling rate                            : 48.0 kHz
Frame rate                               : 46.875 FPS (1024 SPF)
Compression mode                         : Lossy
Stream size                              : 193 MiB (5%)
Title                                    : [Hindi Dub] MelbetCinema
Language                                 : Hindi
Default                                  : Yes
Forced                                   : No
Category:Movies > HD 1080p
Lang:Hindi  Hindi
Total Size:4.15 GB
Info Hash:15b93f1bb2c70aef28dbcd8af08429f115ebd26e
Added By:MelbetCinema7
Date Added:11-06-2021 10:53:15

Files

File List: 
 File Size
Cherry (2021) [Hindi Dub] 1080p WEBRip MelbetCinema.mkv4.15 GB



Comments

There are currently no comments. Be the first one to write something !