etrg indycar war of the worlds Lupin yts xxx ufc 263 Clarice S01E11 The Conjuring The Devil Made Me Do It 2021 Spiral From the Book of Saw 2021 0 F9 2021 Fear the Walking Dead S06E16 ettv Godzilla vs. Kong 2021 The Beast Must Die S01E04 A Quiet Place 2 Infinite 2021 Those Who Wish Me Dead 2021 batwoman DCs Legends of Tomorrow S06E06 fast and furious 9 Naked and Afraid XL S07E08 the family man army of the dead 2021 final space etmovies raya and the last dragon 2021 a quiet place part 2 a quiet place part ii 2020 Batwoman S02E16 nascar sunflower infinite Wrath of Man 2021 The Misfits 2021 Spirit Untamed 2021 The Handmaids Tale S04E09 Hindi 2021 f9 evo The Unholy 2021 ufc In The Heights 2021 manifest Nobody 2021 Wwe The Hitmans Wifes Bodyguard 2021 Blindspotting S01E01 Hitmans Wifes Bodyguard 2021 Mortal Kombat 2021 ddr WRATH OF MAN Awake 2021 legends of tomorrow S06e06 proper time hindi Loki Peter Rabbit 2 The Runaway 2021 a quiet place Rogue Hostage 2021 Cruella 2021 ITA ethd   a quiet place 2018 Loki S01E01 malayalam  Fear the walking dead  The Chi S04E04 A Quiet Place Part II 2021 
Warning! Use a V.P.N when Downloading Torrents!
Your IP Address is 3.233.219.62. Location United States
Your Internet Provider can see when you download torrents! Hide your IP Address with a V.P.N
ETTV warns: You should use V.P.N to hide your torrenting. HIDE ME NOW
ETTV Recommended TV Shows
WWE Monday Night Raw 2021 06 14 HDTV x264-NWCHD [TJET] torrent
American.Dad.S17E09.XviD-AFG[ettv] torrent
Below.Deck.Sailing.Yacht.S02E16.720p.HDTV.x264-SYNCOPY torrent
Hells.Kitchen.US.S20E03.1080p.WEB.h264-BAE torrent
The.Republic.of.Sarah.S01E01.XviD-AFG[ettv] torrent
Tuca.and.Bertie.S02E01.720p.WEBRip.x264-BAE[ettv] torrent
The.Story.of.Late.Night.S01E01.REPACK.1080p.WEBRip.x264-BAE[ettv] torrent
MasterChef.Australia.S13E41.HDTV.x264-FQM[ettv] torrent
I.Sniper.S01E06.WEBRip.x264-BAE[ettv] torrent
Big.Brother.AU.S13E24.HDTV.x264-FQM[ettv] torrent

ETTV Recommended SD
Chained.2021.HDRip.XviD.AC3-EVO torrent
Amityville.Vampire.2021.HDRip.XviD.AC3-EVO torrent
Counting.Bullets.2021.HDRip.XviD.AC3-EVO torrent
The.Space.Between.2021.HDRip.XviD.AC3-EVO torrent

ETTV Recommended HD
Spiral: From the Book of Saw (2021) + Extras (1080p WEB-DL x265 HEVC 10bit EAC3 5.1 SAMPA) [QxR] torrent
Spider-Man Homecoming (2017) 3D HSBS 1080p H264 DolbyD 5.1 ūüĎď ¬©ÔłŹnickarad torrent
Lethal Love Letter 2021 720p WEB HEVC x265 torrent
Secrets.Of.A.Gold.Digger.Killer.2021.LIFETIME.720p.WEB-DL.AAC2.0.H264-LBR torrent

ETTV Recommended UHD
Leon.The.Professional.1994.EXTENDED.4K.HDR.2160p.BDRip Ita Eng Fre x265-NAHOM torrent
Wrath.of.Man.2021.2160p.HDR.mUHD.WebRip.HEVC.DDP5.1-DDR.mkv torrent
King.Kong.2005.EXTENDED.4K.HDR.2160p.BDRip Ita Eng x265-NAHOM torrent
Hunger Games 2012 BluRay 1080p  x265 DTS-HD MA 7.1 D0ct0rLew[SEV] torrent
Minority.Report.2002.4K.SDR.2160p.WEBDL Ita Eng x265-NAHOM torrent
Saw.2004.4K.HDR.2160p.BDRip Ita Eng x265-NAHOM torrent

ETTV Recommended Cam
Fast.And.Furious.9.2021. CAM NEW SOURCE CLEAN SomeCoontS torrent
A.Quiet.Place.Part.II.2021.TC720p.Clean.Cam.H264.AC3.WARRIORS torrent
The Hitmans Wifes Bodyguard (2021) 720p English HDCAM-Rip x264 AAC By Full4Movies torrent
Ascendant (2021) 720p HDCAM English New Movie x264 AAC By Full4Movies torrent

ETTV Recommended Foreign
Deliver Us From Evil 2020 Final Cut 720p BluRay HEVC X265-RMTeam torrent
Viaje.al.Cuarto.de.una.Madre.2018.720p.WEBRip.x264.AC3.HORiZON-ArtSubs torrent
Preparations.to.Be.Together.for.an.Unknown.Period.of.Time.2020.1080p.WEB-DL.x264.AC3.HORiZON-ArtSubs torrent
Anger Management 2003 x264 720p Esub BluRay Dual Audio English Hindi THE GOPI SAHI torrent
Home Sweet Home 2021 720p HC HDRip Chinese H264 torrent
2 Scary Movie 2 2001 x264 720p Esub BluRay Dual Audio English Hindi THE GOPI SAHI torrent

ETTV Recommended Misc
[americana, indie-folk] (2021) Joana Serrat - Hardcore from the Heart [FLAC] [DarkAngie] torrent
(2021) Black Sabbath - Sabotage [Super Deluxe Edition] [FLAC] [DarkAngie] torrent
VA - New Music Releases Week 23 of 2021 (Mp3 320kbps Songs) [PMEDIA] ‚≠źÔłŹ torrent
70 Tracks I Love My ~60s Funk Playlist Spotify (ETTV)~320  kbps Beats‚≠ź torrent
This Is James Brown Playlist Spotify Mp3~ 320  kbps   (ETTV) Beats‚≠ź torrent
The Night of the Mayas- Music of Silvestre Revueltas Mp-3 1994 torrent


Download Torrent "Riders.of.Justice.2020.1080p.WEB-DL.x264.AC3-5.1.HORiZON-ArtSubs"

IMDB Details
Description:

N/A

Genre:

N/A

Download Torrent (Magnet)
Download Torrent (File)

Seeds: 518
Leechers: 245

Uploaded by:
artsubs


Category:
Movies > HD 1080p (Great for large screens)


Details
Title:Riders.of.Justice.2020.1080p.WEB-DL.x264.AC3-5.1.HORiZON-ArtSubs
Description:
Release: Riders.of.Justice.2020.1080p.WEB-DL.x264.AC3-5.1.HORiZON-ArtSubs



IMDB: https://www.imdb.com/title/tt11655202

Subtitle: English ("SOFT" / not hardcoded)

Plot: Markus, who has to go home to his teenage daughter, Mathilde, when his wife dies in a tragic train accident. It seems like an accident until a mathematics geek, who was also a fellow passenger on the train, and his two colleagues show up.


General
Complete name               : Riders.of.Justice.2020.1080p.WEB-DL.x264.AC3-5.1.HORiZON-ArtSubs.mkv
Format                      : Matroska
Format version              : Version 4
File size                   : 2.55 GiB
Duration                    : 1 h 55 min
Overall bit rate            : 3 148 kb/s
Encoded date                : UTC 2021-06-11 09:59:21
Writing application         : mkvmerge v57.0.0 ('Till The End') 64-bit
Writing library             : libebml v1.4.2 + libmatroska v1.6.4

Video
ID                          : 1
Format                      : AVC
Format/Info                 : Advanced Video Codec
Format profile¬† ¬† ¬† ¬† ¬† ¬† ¬† : [email protected]
Format settings             : CABAC / 4 Ref Frames
Format settings, CABAC      : Yes
Format settings, Reference  : 4 frames
Codec ID                    : V_MPEG4/ISO/AVC
Duration                    : 1 h 55 min
Bit rate                    : 2 700 kb/s
Width                       : 1 920 pixels
Height                      : 806 pixels
Display aspect ratio        : 2.40:1
Frame rate mode             : Constant
Frame rate                  : 24.000 FPS
Color space                 : YUV
Chroma subsampling          : 4:2:0
Bit depth                   : 8 bits
Scan type                   : Progressive
Bits/(Pixel*Frame)          : 0.073
Stream size                 : 2.19 GiB (86%)
Writing library             : x264 core 157 r2935 545de2f
Encoding settings           : cabac=1 / ref=4 / deblock=1:-1:-1 / analyse=0x3:0x113 / me=hex / subme=8 / psy=1 / psy_rd=1.00:0.15 / mixed_ref=1 / me_range=16 / chroma_me=1 / trellis=2 / 8x8dct=1 / cqm=0 / deadzone=21,11 / fast_pskip=1 / chroma_qp_offset=-3 / threads=6 / lookahead_threads=1 / sliced_threads=0 / nr=0 / decimate=1 / interlaced=0 / bluray_compat=0 / constrained_intra=0 / bframes=3 / b_pyramid=2 / b_adapt=1 / b_bias=0 / direct=3 / weightb=1 / open_gop=0 / weightp=2 / keyint=240 / keyint_min=24 / scenecut=40 / intra_refresh=0 / rc_lookahead=50 / rc=2pass / mbtree=1 / bitrate=2700 / ratetol=1.0 / qcomp=0.65 / qpmin=0 / qpmax=69 / qpstep=4 / cplxblur=20.0 / qblur=0.5 / vbv_maxrate=25000 / vbv_bufsize=78125 / nal_hrd=none / filler=0 / ip_ratio=1.40 / aq=3:1.20
Default                     : Yes
Forced                      : No
Color range                 : Limited
Color primaries             : BT.709
Transfer characteristics    : BT.709
Matrix coefficients         : BT.709

Audio
ID                          : 2
Format                      : AC-3
Format/Info                 : Audio Coding 3
Commercial name             : Dolby Digital
Codec ID                    : A_AC3
Duration                    : 1 h 55 min
Bit rate mode               : Constant
Bit rate                    : 448 kb/s
Channel(s)                  : 6 channels
Channel layout              : L R C LFE Ls Rs
Sampling rate               : 48.0 kHz
Frame rate                  : 31.250 FPS (1536 SPF)
Compression mode            : Lossy
Delay relative to video     : 10 ms
Stream size                 : 371 MiB (14%)
Language                    : Danish
Service kind                : Complete Main
Default                     : Yes
Forced                      : No

Text
ID                          : 3
Format                      : UTF-8
Codec ID                    : S_TEXT/UTF8
Codec ID/Info               : UTF-8 Plain Text
Duration                    : 1 h 48 min
Bit rate                    : 59 b/s
Count of elements           : 1118
Stream size                 : 47.2 KiB (0%)
Language                    : English
Default                     : Yes
Forced                      : No


SCREENSHOTS:





Category:Movies > HD 1080p
Lang:Danish
Total Size:2.55 GB
Info Hash:ae7cb6307bfef4e9dc14935527da97235750a0d5
Added By:artsubs
Date Added:11-06-2021 14:12:21

  

Files

File List: 
 File Size
Riders.of.Justice.2020.1080p.WEB-DL.x264.AC3-5.1.HORiZON-ArtSubs.mkv2.55 GB



Comments

There are currently no comments. Be the first one to write something !