City of Dreams Season 2 old 2021 Lochdown luca Mimi 2021 f1 rick and morty Jolt 2021 Wrath of Man 2021 1 Stillwater 2021 city of dreams 2  jungle cruise hindi escape room The Outpost S04E03 City of dreams hindi Blood Red Sky 2021 the grand tour F9 2021 Titanic 0 Gunpowder Milkshake 2021 space jam a new legacy 2021 beats Jungle Cruise 2021 ted lasso A Quiet Place Part II 2021 loki haseen dillruba city of dreams 2021 tamil ita Ted Lasso S02E02 2160p jungle ettv F9 The Fast Saga 2021 WWE SmackDown black widow 2021 bad batch old suicide squad wrath of man fast and furious 9 f1 2021 suicide squad 2021 sarpatta parambarai rurouni kenshin ddr Black widow The Suicide Squad 2021 the green knight 2021 Hitmans Wifes Bodyguard 2021 brazzers The Tomorrow War 2021 Fast and Furious SurrealEstate S01E03 fast 9 Hindi 2021 Hungama 2 outer Banks The Forever Purge 2021 Luca 2021 Escape Room Tournament of Champions 2021 jungle cruise 14 phere the green knight xxx grand tour Wwe hostel daze Midnight in the Switchgrass 2021 the last mercenary  Pig 2021 thittam irandu The Grand Tour s04e03 F9 formula 1 malayalam Snake Eyes 2021 snake eyes g.i. joe origins 2021 dc week mimi evo snake eyes the suicide squad 2 
Warning! Use a V.P.N when Downloading Torrents!
Your IP Address is . Location
Your Internet Provider can see when you download torrents! Hide your IP Address with a V.P.N
ETTV warns: You should use V.P.N to hide your torrenting. HIDE ME NOW
ETTV Recommended TV Shows
Power.Book.III.Raising.Kanan.S01E03.XviD-AFG[ettv] torrent
Blindspotting.S01E07.XviD-AFG[ettv] torrent
UFC.Fight.Night.Hall.vs.Strickland.1080p.WEB-DL.H264 .Fight-BB-(ETTV)  Beats⭐ torrent
Flatbush.Misdemeanors.S01E10.XviD-AFG[ettv] torrent
The.End.S01E06.1080p.WEB.H264-GLHF[ettv] torrent
The.Grand.Tour.S04E03.1080p.WEB.H264-WHOSNEXT[ettv] torrent

ETTV Recommended SD
The.Christmas.Dance.2021.HDRip.XviD.AC3-EVO torrent
Meander.2021.HDRip.XviD.B4ND1T69 torrent
Jungle.Cruise.2021.HDRip.XviD.AC3-EVO torrent
The.Last.Mercenary.2021.HDRip.XviD.AC3-EVO torrent

ETTV Recommended HD
For.Your.Eyes.Only.1981.1080p.BluRay.10bit.x265-HazMatt.mkv torrent
Luca.2021.1080p.Bluray.DTS-HD.MA.7.1.X264-EVO torrent
F9.The.Fast. Saga.2021.  1080P. Web-Rip 5.1.H. 264- Beats⭐ torrent
Malicious.Motives.2021.LIFETIME.720p.WEB-DL.AAC2.0.H264-LBR torrent

ETTV Recommended UHD
Pokémon.Detective.Pikachu.2019.2160p.UHD.BluRay.REMUX.HDR.HEVC.Aymos.7.1-SYS.mkv torrent
Passengers.2016.2160p.UHD.BluRay.REMUX.HDR.HEVC.ATMOS.7.1-SYS.mkv torrent
Snatch.2000.BDRip.2160p.UHD.HDR.Eng.TrueHD.DD5.1.gerald99 torrent
The.Water.Diviner.2014.WEBRip.2160p.SDR.HEVC.Eng.DD5.1.gerald99 torrent
Repack.F9.The.Fast.Saga.2021.WEBRip.2160p.UHD.HDR.Eng.DDP5.1-Atmos.DD5.1.gerald99 torrent
Jungle.Cruise.2021.DSNP.WEBRip.2160p.UHD.HDR.Eng.DDP5.1-Atmos.DD5.1.gerald99 torrent

ETTV Recommended Cam
Escape Room: Tournament of Champions (2021) 720p CAMRip [Hindi-Sub] x264 1XBET torrent
Snake.Eyes.2021.720p.HDCAM.SLOTSLIGHTS.mkv torrent
Off.the.Rails.2021.720p.HDCAM.SLOTSLIGHTS.mkv torrent

ETTV Recommended Foreign
Jolt-Rabbia assassina (2021) ITA-ENG Ac3 5.1 WEBRip 1080p H264 [ArMor] torrent
Come True (2020) ITA-ENG Ac3 5.1 BDRip 1080p H264 [ArMor] torrent
Miss Fisher & the Crypt of Tears (2020) BluRay 1080p.H264 Ita Eng AC3 5.1 Sub Ita Eng - realDMDJ torrent
F9.2021.SPANiSH.1080p.AMZN.WEB-DL.x264-dem3nt3 torrent
Blood.Red.Sky.2021.Ger.Spa.WEBRip.x264-YG⭐ torrent
Jungle Cruise (2021) Disney - FullHD 1080p.H264 Ita Eng AC3 5.1 Multisub - realDMDJ torrent

ETTV Recommended Misc
50 Greatest Songs Of All Time For All Time For Fitness & Workout (ETTV)  Playlist ~320   kbps~ Beats⭐ torrent
Bedroom Jams (ETTV)  Playlist Mp3~320   kbps~ Beats⭐ torrent
Phil Collins - Going Back (2010) Flac torrent
Nicki Minaj - Pink Friday (2010) Flac torrent
Ariana grande  (ETTV)  Playlist Mp3~320   kbps~ Beats⭐ torrent
Justin Bieber (ETTV)  Playlist Mp3~320   kbps~ Beats⭐ torrent


Download Torrent "Hunger Games 2012 BluRay 1080p x265 DTS-HD MA 7.1 D0ct0rLew[SEV]"

IMDB Details
Description:

Katniss Everdeen voluntarily takes her younger sister's place in the Hunger Games: a televised competition in which two teenagers from each of the twelve Districts of Panem are chosen at random to fight to the death.

Genre:

Action, Adventure, Sci-Fi, Thriller

Download Torrent (Magnet)
Download Torrent (File)

Seeds: 559
Leechers: 141

Uploaded by:
D0ct0rLew


Category:
Movies > HEVC/x265 (Super High Quality, Small size, high CPU usage)


Details
Title:Hunger Games 2012 BluRay 1080p x265 DTS-HD MA 7.1 D0ct0rLew[SEV]
Description:



Screenshots
Source


Encode


Media Information

General
Unique ID                                : 111098752728523025494661264801263366164 (0x5394D76A577107EEC932D860B95DB014)
Complete name                            : The Hunger Games 2012 BluRay 1080p  x265 DTS-HD MA 7.1 D0ct0rLew[SEV].mkv
Format                                   : Matroska
Format version                           : Version 4
File size                                : 20.2 GiB
Duration                                 : 2 h 22 min
Overall bit rate mode                    : Variable
Overall bit rate                         : 20.3 Mb/s
Movie name                               : The Hunger Games 2012 BluRay 1080p  x265 DTS-HD MA 7.1 D0ct0rLew[SEV]
Encoded date                             : UTC 2021-05-07 18:41:23
Writing application                      : mkvmerge v56.1.0 ('My Friend') 64-bit
Writing library                          : libebml v1.4.2 + libmatroska v1.6.4
Attachments                              : Montepetrum-rrBL.ttf

Video
ID                                       : 1
Format                                   : HEVC
Format/Info                              : High Efficiency Video Coding
Format profile                           : Main [email protected]@Main
Codec ID                                 : V_MPEGH/ISO/HEVC
Duration                                 : 2 h 22 min
Bit rate                                 : 15.8 Mb/s
Width                                    : 1 920 pixels
Height                                   : 1 080 pixels
Display aspect ratio                     : 16:9
Frame rate mode                          : Constant
Frame rate                               : 23.976 (24000/1001) FPS
Color space                              : YUV
Chroma subsampling                       : 4:2:0
Bit depth                                : 10 bits
Bits/(Pixel*Frame)                       : 0.317
Stream size                              : 15.7 GiB (78%)
Title                                    : The Hunger Games 2012 BluRay 1080p  x265 DTS-HD MA 7.1 D0ct0rLew[SEV]
Writing library                          : x265 3.5+9-bf91444e0:[Windows][MSVC 1928][64 bit] 10bit
Encoding settings                        : cpuid=1049583 / frame-threads=3 / numa-pools=8 / wpp / no-pmode / no-pme / no-psnr / no-ssim / log-level=2 / input-csp=1 / input-res=1920x1080 / interlace=0 / total-frames=1436 / level-idc=0 / high-tier=1 / uhd-bd=0 / ref=5 / no-allow-non-conformance / no-repeat-headers / annexb / no-aud / no-eob / no-eos / no-hrd / info / hash=0 / no-temporal-layers / open-gop / min-keyint=24 / keyint=240 / gop-lookahead=0 / bframes=16 / b-adapt=2 / b-pyramid / bframe-bias=0 / rc-lookahead=90 / lookahead-slices=0 / scenecut=40 / hist-scenecut=0 / radl=0 / no-splice / no-intra-refresh / ctu=64 / min-cu-size=8 / no-rect / no-amp / max-tu-size=32 / tu-inter-depth=4 / tu-intra-depth=4 / limit-tu=4 / rdoq-level=2 / dynamic-rd=0.00 / no-ssim-rd / signhide / no-tskip / nr-intra=0 / nr-inter=0 / no-constrained-intra / no-strong-intra-smoothing / max-merge=5 / limit-refs=0 / limit-modes / me=3 / subme=7 / merange=92 / temporal-mvp / no-frame-dup / no-hme / weightp / weightb / no-analyze-src-pics / deblock=0:0 / sao / no-sao-non-deblock / rd=4 / selective-sao=4 / no-early-skip / rskip / no-fast-intra / no-tskip-fast / no-cu-lossless / b-intra / no-splitrd-skip / rdpenalty=0 / psy-rd=1.30 / psy-rdoq=1.00 / no-rd-refine / no-lossless / cbqpoffs=0 / crqpoffs=0 / rc=crf / crf=17.2 / qcomp=0.60 / qpstep=4 / stats-write=0 / stats-read=0 / ipratio=1.40 / pbratio=1.30 / aq-mode=3 / aq-strength=1.00 / cutree / zone-count=0 / no-strict-cbr / qg-size=32 / no-rc-grain / qpmax=69 / qpmin=0 / no-const-vbv / sar=1 / overscan=0 / videoformat=5 / range=0 / colorprim=2 / transfer=2 / colormatrix=2 / chromaloc=0 / display-window=0 / cll=0,0 / min-luma=0 / max-luma=1023 / log2-max-poc-lsb=8 / vui-timing-info / vui-hrd-info / slices=1 / no-opt-qp-pps / no-opt-ref-list-length-pps / no-multi-pass-opt-rps / scenecut-bias=0.05 / hist-threshold=0.03 / no-opt-cu-delta-qp / no-aq-motion / no-hdr10 / no-hdr10-opt / no-dhdr10-opt / no-idr-recovery-sei / analysis-reuse-level=0 / analysis-save-reuse-level=0 / analysis-load-reuse-level=0 / scale-factor=0 / refine-intra=0 / refine-inter=0 / refine-mv=1 / refine-ctu-distortion=0 / no-limit-sao / ctu-info=0 / no-lowpass-dct / refine-analysis-type=0 / copy-pic=1 / max-ausize-factor=1.0 / no-dynamic-refine / no-single-sei / no-hevc-aq / no-svt / no-field / qp-adaptation-range=1.00 / scenecut-aware-qp=0conformance-window-offsets / right=0 / bottom=0 / decoder-max-rate=0 / no-vbv-live-multi-pass
Default                                  : Yes
Forced                                   : No

Audio
ID                                       : 2
Format                                   : DTS XLL
Format/Info                              : Digital Theater Systems
Commercial name                          : DTS-HD Master Audio
Codec ID                                 : A_DTS
Duration                                 : 2 h 22 min
Bit rate mode                            : Variable
Bit rate                                 : 4 564 kb/s
Channel(s)                               : 8 channels
Channel layout                           : C L R LFE Lb Rb Lss Rss
Sampling rate                            : 48.0 kHz
Frame rate                               : 93.750 FPS (512 SPF)
Bit depth                                : 24 bits
Compression mode                         : Lossless
Stream size                              : 4.54 GiB (22%)
Title                                    : The Hunger Games 2012 BluRay 1080p  x265 DTS-HD MA 7.1 D0ct0rLew[SEV]
Language                                 : English
Default                                  : Yes
Forced                                   : No

Text #1
ID                                       : 3
Format                                   : ASS
Codec ID                                 : S_TEXT/ASS
Codec ID/Info                            : Advanced Sub Station Alpha
Duration                                 : 2 h 21 min
Bit rate                                 : 67 b/s
Count of elements                        : 1349
Compression mode                         : Lossless
Stream size                              : 70.3 KiB (0%)
Title                                    : The Hunger Games 2012 BluRay 1080p  x265 DTS-HD MA 7.1 D0ct0rLew[SEV]
Default                                  : Yes
Forced                                   : No

Text #2
ID                                       : 4
Format                                   : VobSub
Muxing mode                              : zlib
Codec ID                                 : S_VOBSUB
Codec ID/Info                            : Picture based subtitle format used on DVDs
Duration                                 : 2 h 11 min
Bit rate                                 : 1 980 b/s
Count of elements                        : 1112
Stream size                              : 1.87 MiB (0%)
Language                                 : Spanish
Default                                  : No
Forced                                   : No

Menu
00:00:00.000                             : 00:00:00.000
00:10:05.814                             : 00:10:05.814
00:18:00.079                             : 00:18:00.079
00:25:05.879                             : 00:25:05.879
00:31:12.662                             : 00:31:12.662
00:43:28.564                             : 00:43:28.564
00:50:38.702                             : 00:50:38.702
00:56:58.915                             : 00:56:58.915
01:06:57.764                             : 01:06:57.764
01:15:58.971                             : 01:15:58.971
01:22:06.046                             : 01:22:06.046
01:29:00.418                             : 01:29:00.418
01:38:00.750                             : 01:38:00.750
01:43:19.193                             : 01:43:19.193
01:57:56.611                             : 01:57:56.611
02:09:26.550                             : 02:09:26.550

Source Media Information

General
Unique ID                                : 176879067901714906862747816185775176555 (0x8511AB59E9DD1CB6BCE311D3B562BB6B)
Complete name                            : The.Hunger.Games.2012.Blu-ray.1080p.AVC.DTS-HD.MA.7.1.REMUX-FraMeSToR.mkv
Format                                   : Matroska
Format version                           : Version 2
File size                                : 38.2 GiB
Duration                                 : 2 h 22 min
Overall bit rate mode                    : Variable
Overall bit rate                         : 38.4 Mb/s
Encoded date                             : UTC 2012-08-05 11:58:12
Writing application                      : mkvmerge v5.3.0 ('I could have danced') built on Feb  9 2012 10:38:07
Writing library                          : libebml v1.2.3 + libmatroska v1.3.0

Video
ID                                       : 1
Format                                   : AVC
Format/Info                              : Advanced Video Codec
Format profile                           : [email protected]
Format settings                          : CABAC / 4 Ref Frames
Format settings, CABAC                   : Yes
Format settings, Reference frames        : 4 frames
Codec ID                                 : V_MPEG4/ISO/AVC
Duration                                 : 2 h 22 min
Bit rate mode                            : Variable
Bit rate                                 : 33.8 Mb/s
Maximum bit rate                         : 37.0 Mb/s
Width                                    : 1 920 pixels
Height                                   : 1 080 pixels
Display aspect ratio                     : 16:9
Frame rate mode                          : Constant
Frame rate                               : 23.976 (24000/1001) FPS
Color space                              : YUV
Chroma subsampling                       : 4:2:0
Bit depth                                : 8 bits
Scan type                                : Progressive
Bits/(Pixel*Frame)                       : 0.679
Stream size                              : 33.6 GiB (100%)
Title                                    : FraMeSToR MPEG-4 AVC Video
Default                                  : Yes
Forced                                   : No

Audio
ID                                       : 2
Format                                   : DTS XLL
Format/Info                              : Digital Theater Systems
Commercial name                          : DTS-HD Master Audio
Codec ID                                 : A_DTS
Duration                                 : 2 h 22 min
Bit rate mode                            : Variable
Channel(s)                               : 6 channels
Channel(s)_Original                      : 8 channels
ChannelLayout_Original                   : C L R LFE Lsr Rsr Lss Rss
Sampling rate                            : 48.0 kHz
Frame rate                               : 93.750 FPS (512 SPF)
Bit depth                                : 24 bits
Compression mode                         : Lossless
Title                                    : FraMeSToR DTS-HD MA 7.1
Language                                 : English
Default                                  : Yes
Forced                                   : No

Text #1
ID                                       : 3
Format                                   : PGS
Codec ID                                 : S_HDMV/PGS
Codec ID/Info                            : Picture based subtitle format used on BDs/HD-DVDs
Title                                    : ENG
Language                                 : English
Default                                  : Yes
Forced                                   : No

Text #2
ID                                       : 4
Format                                   : PGS
Codec ID                                 : S_HDMV/PGS
Codec ID/Info                            : Picture based subtitle format used on BDs/HD-DVDs
Title                                    : ENG SDH
Language                                 : English
Default                                  : No
Forced                                   : No

Text #3
ID                                       : 5
Format                                   : PGS
Muxing mode                              : zlib
Codec ID                                 : S_HDMV/PGS
Codec ID/Info                            : Picture based subtitle format used on BDs/HD-DVDs
Title                                    : SPA
Language                                 : Spanish
Default                                  : No
Forced                                   : No

Menu
00:00:00.000                             : en:00:00:00.000
00:10:05.814                             : en:00:10:05.814
00:18:00.079                             : en:00:18:00.079
00:25:05.879                             : en:00:25:05.879
00:31:12.662                             : en:00:31:12.662
00:43:28.564                             : en:00:43:28.564
00:50:38.702                             : en:00:50:38.702
00:56:58.915                             : en:00:56:58.915
01:06:57.764                             : en:01:06:57.764
01:15:58.971                             : en:01:15:58.971
01:22:06.046                             : en:01:22:06.046
01:29:00.418                             : en:01:29:00.418
01:38:00.750                             : en:01:38:00.750
01:43:19.193                             : en:01:43:19.193
01:57:56.611                             : en:01:57:56.611
02:09:26.550                             : en:02:09:26.550

We have no issue with individuals posting or re-uploading our torrents on a platform we aren't on. However, if this is something you'd like to do, please do so in a 'as-is' format. We ask that you do not create a new torrent, include all descriptions you see above including the SEV logo, tags, notes and screenshots. If you'd like to become a permanent poster on a website we don't post to, feel free to get in contact with a Sublime Encoded Video  member.


We are recruiting/training new members for SEV & seedbox providers as well as people to help out with subtitles.
As you already know, we deliver quality, so you know the standard.
If you're interested, feel free to contact any of the team members.

Category:Movies > HEVC/x265
Lang:English  English
Total Size:20.23 GB
Info Hash:b4b597bdb2b549fb5e951f5f325c1858c18096d3
Added By:D0ct0rLew
Date Added:11-06-2021 19:32:26

  

Files

File List: 
 File Size
Contact SEV.txt1.03 kB
The Hunger Games 2012 BluRay 1080p x265 DTS-HD MA 7.1 D0ct0rLew[SEV].mkv20.23 GB



Comments

There are currently no comments. Be the first one to write something !