City of Dreams Season 2 old 2021 Lochdown luca Mimi 2021 f1 rick and morty Jolt 2021 Wrath of Man 2021 1 Stillwater 2021 city of dreams 2  jungle cruise hindi escape room The Outpost S04E03 City of dreams hindi Blood Red Sky 2021 the grand tour F9 2021 Titanic 0 Gunpowder Milkshake 2021 space jam a new legacy 2021 beats Jungle Cruise 2021 ted lasso A Quiet Place Part II 2021 loki haseen dillruba city of dreams 2021 tamil ita Ted Lasso S02E02 2160p jungle ettv F9 The Fast Saga 2021 WWE SmackDown black widow 2021 bad batch old suicide squad wrath of man fast and furious 9 f1 2021 suicide squad 2021 sarpatta parambarai rurouni kenshin ddr Black widow The Suicide Squad 2021 the green knight 2021 Hitmans Wifes Bodyguard 2021 brazzers The Tomorrow War 2021 Fast and Furious SurrealEstate S01E03 fast 9 Hindi 2021 Hungama 2 outer Banks The Forever Purge 2021 Luca 2021 Escape Room Tournament of Champions 2021 jungle cruise 14 phere the green knight xxx grand tour Wwe hostel daze Midnight in the Switchgrass 2021 the last mercenary  Pig 2021 thittam irandu The Grand Tour s04e03 F9 formula 1 malayalam Snake Eyes 2021 snake eyes g.i. joe origins 2021 dc week mimi evo snake eyes the suicide squad 2 
Warning! Use a V.P.N when Downloading Torrents!
Your IP Address is . Location
Your Internet Provider can see when you download torrents! Hide your IP Address with a V.P.N
ETTV warns: You should use V.P.N to hide your torrenting. HIDE ME NOW
ETTV Recommended TV Shows
Power.Book.III.Raising.Kanan.S01E03.XviD-AFG[ettv] torrent
Blindspotting.S01E07.XviD-AFG[ettv] torrent
UFC.Fight.Night.Hall.vs.Strickland.1080p.WEB-DL.H264 .Fight-BB-(ETTV)  Beats⭐ torrent
Flatbush.Misdemeanors.S01E10.XviD-AFG[ettv] torrent
The.End.S01E06.1080p.WEB.H264-GLHF[ettv] torrent
The.Grand.Tour.S04E03.1080p.WEB.H264-WHOSNEXT[ettv] torrent

ETTV Recommended SD
The.Christmas.Dance.2021.HDRip.XviD.AC3-EVO torrent
Meander.2021.HDRip.XviD.B4ND1T69 torrent
Jungle.Cruise.2021.HDRip.XviD.AC3-EVO torrent
The.Last.Mercenary.2021.HDRip.XviD.AC3-EVO torrent

ETTV Recommended HD
For.Your.Eyes.Only.1981.1080p.BluRay.10bit.x265-HazMatt.mkv torrent
Luca.2021.1080p.Bluray.DTS-HD.MA.7.1.X264-EVO torrent
F9.The.Fast. Saga.2021.  1080P. Web-Rip 5.1.H. 264- Beats⭐ torrent
Malicious.Motives.2021.LIFETIME.720p.WEB-DL.AAC2.0.H264-LBR torrent

ETTV Recommended UHD
Pokémon.Detective.Pikachu.2019.2160p.UHD.BluRay.REMUX.HDR.HEVC.Aymos.7.1-SYS.mkv torrent
Passengers.2016.2160p.UHD.BluRay.REMUX.HDR.HEVC.ATMOS.7.1-SYS.mkv torrent
Snatch.2000.BDRip.2160p.UHD.HDR.Eng.TrueHD.DD5.1.gerald99 torrent
The.Water.Diviner.2014.WEBRip.2160p.SDR.HEVC.Eng.DD5.1.gerald99 torrent
Repack.F9.The.Fast.Saga.2021.WEBRip.2160p.UHD.HDR.Eng.DDP5.1-Atmos.DD5.1.gerald99 torrent
Jungle.Cruise.2021.DSNP.WEBRip.2160p.UHD.HDR.Eng.DDP5.1-Atmos.DD5.1.gerald99 torrent

ETTV Recommended Cam
Escape Room: Tournament of Champions (2021) 720p CAMRip [Hindi-Sub] x264 1XBET torrent
Snake.Eyes.2021.720p.HDCAM.SLOTSLIGHTS.mkv torrent
Off.the.Rails.2021.720p.HDCAM.SLOTSLIGHTS.mkv torrent

ETTV Recommended Foreign
Jolt-Rabbia assassina (2021) ITA-ENG Ac3 5.1 WEBRip 1080p H264 [ArMor] torrent
Come True (2020) ITA-ENG Ac3 5.1 BDRip 1080p H264 [ArMor] torrent
Miss Fisher & the Crypt of Tears (2020) BluRay 1080p.H264 Ita Eng AC3 5.1 Sub Ita Eng - realDMDJ torrent
F9.2021.SPANiSH.1080p.AMZN.WEB-DL.x264-dem3nt3 torrent
Blood.Red.Sky.2021.Ger.Spa.WEBRip.x264-YG⭐ torrent
Jungle Cruise (2021) Disney - FullHD 1080p.H264 Ita Eng AC3 5.1 Multisub - realDMDJ torrent

ETTV Recommended Misc
50 Greatest Songs Of All Time For All Time For Fitness & Workout (ETTV)  Playlist ~320   kbps~ Beats⭐ torrent
Bedroom Jams (ETTV)  Playlist Mp3~320   kbps~ Beats⭐ torrent
Phil Collins - Going Back (2010) Flac torrent
Nicki Minaj - Pink Friday (2010) Flac torrent
Ariana grande  (ETTV)  Playlist Mp3~320   kbps~ Beats⭐ torrent
Justin Bieber (ETTV)  Playlist Mp3~320   kbps~ Beats⭐ torrent


Download Torrent "Preparations.to.Be.Together.for.an.Unknown.Period.of.Time.2020.1080p.WEB-DL..."

IMDB Details
Description:

N/A

Genre:

N/A

Download Torrent (Magnet)
Download Torrent (File)

Seeds: 48
Leechers: 8

Uploaded by:
artsubs


Category:
Movies > HD 1080p (Great for large screens)


Details
Title:Preparations.to.Be.Together.for.an.Unknown.Period.of.Time.2020.1080p.WEB-DL...
Description:
Release: Preparations.to.Be.Together.for.an.Unknown.Period.of.Time.2020.1080p.WEB-DL.x264.AC3.HORiZON-ArtSubs



IMDB: https://www.imdb.com/title/tt12564514

Subtitle: English (soft)

Plot: Marta, a forty-year-old neurosurgeon, falls in love. She leaves her shining American career behind and returns to Budapest to start a new life with the man. But the love of her life claims they have never met before. Official submission of Hungary for the 'Best International Feature Film' category of the 93rd Academy Awards in 2021.


General
Complete name               : Preparations.to.Be.Together.for.an.Unknown.Period.of.Time.2020.1080p.WEB-DL.x264.AC3.HORiZON-ArtSubs.mkv
Format                      : Matroska
Format version              : Version 4
File size                   : 2.47 GiB
Duration                    : 1 h 34 min
Overall bit rate            : 3 749 kb/s
Encoded date                : UTC 2021-05-05 11:48:00
Writing application         : mkvmerge v56.0.0 ('Strasbourg / St. Denis') 64-bit
Writing library             : libebml v1.4.2 + libmatroska v1.6.4

Video
ID                          : 1
Format                      : AVC
Format/Info                 : Advanced Video Codec
Format profile              : [email protected]
Format settings             : CABAC / 4 Ref Frames
Format settings, CABAC      : Yes
Format settings, Reference  : 4 frames
Codec ID                    : V_MPEG4/ISO/AVC
Duration                    : 1 h 34 min
Bit rate                    : 3 300 kb/s
Width                       : 1 920 pixels
Height                      : 1 040 pixels
Display aspect ratio        : 1.85:1
Frame rate mode             : Constant
Frame rate                  : 24.000 FPS
Color space                 : YUV
Chroma subsampling          : 4:2:0
Bit depth                   : 8 bits
Scan type                   : Progressive
Bits/(Pixel*Frame)          : 0.069
Stream size                 : 2.18 GiB (88%)
Writing library             : x264 core 157 r2935 545de2f
Encoding settings           : cabac=1 / ref=4 / deblock=1:-2:-2 / analyse=0x3:0x133 / me=umh / subme=10 / psy=1 / psy_rd=1.00:0.25 / mixed_ref=1 / me_range=32 / chroma_me=1 / trellis=2 / 8x8dct=1 / cqm=0 / deadzone=6,6 / fast_pskip=1 / chroma_qp_offset=-4 / threads=6 / lookahead_threads=1 / sliced_threads=0 / nr=0 / decimate=0 / interlaced=0 / bluray_compat=0 / constrained_intra=0 / bframes=8 / b_pyramid=2 / b_adapt=2 / b_bias=0 / direct=3 / weightb=1 / open_gop=0 / weightp=2 / keyint=240 / keyint_min=24 / scenecut=40 / intra_refresh=0 / rc_lookahead=60 / rc=2pass / mbtree=1 / bitrate=3300 / ratetol=1.0 / qcomp=0.75 / qpmin=0 / qpmax=69 / qpstep=4 / cplxblur=20.0 / qblur=0.5 / vbv_maxrate=25000 / vbv_bufsize=78125 / nal_hrd=none / filler=0 / ip_ratio=1.10 / aq=3:1.20
Default                     : Yes
Forced                      : No
Color range                 : Limited
Color primaries             : BT.709
Transfer characteristics    : BT.709
Matrix coefficients         : BT.709

Audio
ID                          : 2
Format                      : AC-3
Format/Info                 : Audio Coding 3
Commercial name             : Dolby Digital
Codec ID                    : A_AC3
Duration                    : 1 h 34 min
Bit rate mode               : Constant
Bit rate                    : 448 kb/s
Channel(s)                  : 6 channels
Channel layout              : L R C LFE Ls Rs
Sampling rate               : 48.0 kHz
Frame rate                  : 31.250 FPS (1536 SPF)
Compression mode            : Lossy
Delay relative to video     : -5 ms
Stream size                 : 303 MiB (12%)
Language                    : Hungarian
Service kind                : Complete Main
Default                     : Yes
Forced                      : No

Text
ID                          : 3
Format                      : UTF-8
Codec ID                    : S_TEXT/UTF8
Codec ID/Info               : UTF-8 Plain Text
Duration                    : 1 h 28 min
Bit rate                    : 28 b/s
Count of elements           : 638
Stream size                 : 18.2 KiB (0%)
Language                    : English
Default                     : Yes
Forced                      : No


SCREENSHOTS:





Category:Movies > HD 1080p
Lang:Hungarian
Total Size:2.47 GB
Info Hash:b4fc0adc2e1bbd106cf9731cdbba21681e441b40
Added By:artsubs
Date Added:13-06-2021 19:29:50

  

Files

File List: 
 File Size
Preparations.to.Be.Together.for.an.Unknown.Period.of.Time.2020.1080p.WEB-DL.x264.AC3.HORiZON-ArtSubs.mkv2.47 GB



Comments

There are currently no comments. Be the first one to write something !