City of Dreams Season 2 old 2021 Lochdown luca Mimi 2021 f1 rick and morty Jolt 2021 Wrath of Man 2021 1 Stillwater 2021 city of dreams 2  jungle cruise hindi escape room The Outpost S04E03 City of dreams hindi Blood Red Sky 2021 the grand tour F9 2021 Titanic 0 Gunpowder Milkshake 2021 space jam a new legacy 2021 beats Jungle Cruise 2021 ted lasso A Quiet Place Part II 2021 loki haseen dillruba city of dreams 2021 tamil ita Ted Lasso S02E02 2160p jungle ettv F9 The Fast Saga 2021 WWE SmackDown black widow 2021 bad batch old suicide squad wrath of man fast and furious 9 f1 2021 suicide squad 2021 sarpatta parambarai rurouni kenshin ddr Black widow The Suicide Squad 2021 the green knight 2021 Hitmans Wifes Bodyguard 2021 brazzers The Tomorrow War 2021 Fast and Furious SurrealEstate S01E03 fast 9 Hindi 2021 Hungama 2 outer Banks The Forever Purge 2021 Luca 2021 Escape Room Tournament of Champions 2021 jungle cruise 14 phere the green knight xxx grand tour Wwe hostel daze Midnight in the Switchgrass 2021 the last mercenary  Pig 2021 thittam irandu The Grand Tour s04e03 F9 formula 1 malayalam Snake Eyes 2021 snake eyes g.i. joe origins 2021 dc week mimi evo snake eyes the suicide squad 2 
Warning! Use a V.P.N when Downloading Torrents!
Your IP Address is . Location
Your Internet Provider can see when you download torrents! Hide your IP Address with a V.P.N
ETTV warns: You should use V.P.N to hide your torrenting. HIDE ME NOW
ETTV Recommended TV Shows
Power.Book.III.Raising.Kanan.S01E03.XviD-AFG[ettv] torrent
Blindspotting.S01E07.XviD-AFG[ettv] torrent
UFC.Fight.Night.Hall.vs.Strickland.1080p.WEB-DL.H264 .Fight-BB-(ETTV)  Beats⭐ torrent
Flatbush.Misdemeanors.S01E10.XviD-AFG[ettv] torrent
The.End.S01E06.1080p.WEB.H264-GLHF[ettv] torrent
The.Grand.Tour.S04E03.1080p.WEB.H264-WHOSNEXT[ettv] torrent

ETTV Recommended SD
The.Christmas.Dance.2021.HDRip.XviD.AC3-EVO torrent
Meander.2021.HDRip.XviD.B4ND1T69 torrent
Jungle.Cruise.2021.HDRip.XviD.AC3-EVO torrent
The.Last.Mercenary.2021.HDRip.XviD.AC3-EVO torrent

ETTV Recommended HD
For.Your.Eyes.Only.1981.1080p.BluRay.10bit.x265-HazMatt.mkv torrent
Luca.2021.1080p.Bluray.DTS-HD.MA.7.1.X264-EVO torrent
F9.The.Fast. Saga.2021.  1080P. Web-Rip 5.1.H. 264- Beats⭐ torrent
Malicious.Motives.2021.LIFETIME.720p.WEB-DL.AAC2.0.H264-LBR torrent

ETTV Recommended UHD
Pokémon.Detective.Pikachu.2019.2160p.UHD.BluRay.REMUX.HDR.HEVC.Aymos.7.1-SYS.mkv torrent
Passengers.2016.2160p.UHD.BluRay.REMUX.HDR.HEVC.ATMOS.7.1-SYS.mkv torrent
Snatch.2000.BDRip.2160p.UHD.HDR.Eng.TrueHD.DD5.1.gerald99 torrent
The.Water.Diviner.2014.WEBRip.2160p.SDR.HEVC.Eng.DD5.1.gerald99 torrent
Repack.F9.The.Fast.Saga.2021.WEBRip.2160p.UHD.HDR.Eng.DDP5.1-Atmos.DD5.1.gerald99 torrent
Jungle.Cruise.2021.DSNP.WEBRip.2160p.UHD.HDR.Eng.DDP5.1-Atmos.DD5.1.gerald99 torrent

ETTV Recommended Cam
Escape Room: Tournament of Champions (2021) 720p CAMRip [Hindi-Sub] x264 1XBET torrent
Snake.Eyes.2021.720p.HDCAM.SLOTSLIGHTS.mkv torrent
Off.the.Rails.2021.720p.HDCAM.SLOTSLIGHTS.mkv torrent

ETTV Recommended Foreign
Jolt-Rabbia assassina (2021) ITA-ENG Ac3 5.1 WEBRip 1080p H264 [ArMor] torrent
Come True (2020) ITA-ENG Ac3 5.1 BDRip 1080p H264 [ArMor] torrent
Miss Fisher & the Crypt of Tears (2020) BluRay 1080p.H264 Ita Eng AC3 5.1 Sub Ita Eng - realDMDJ torrent
F9.2021.SPANiSH.1080p.AMZN.WEB-DL.x264-dem3nt3 torrent
Blood.Red.Sky.2021.Ger.Spa.WEBRip.x264-YG⭐ torrent
Jungle Cruise (2021) Disney - FullHD 1080p.H264 Ita Eng AC3 5.1 Multisub - realDMDJ torrent

ETTV Recommended Misc
50 Greatest Songs Of All Time For All Time For Fitness & Workout (ETTV)  Playlist ~320   kbps~ Beats⭐ torrent
Bedroom Jams (ETTV)  Playlist Mp3~320   kbps~ Beats⭐ torrent
Phil Collins - Going Back (2010) Flac torrent
Nicki Minaj - Pink Friday (2010) Flac torrent
Ariana grande  (ETTV)  Playlist Mp3~320   kbps~ Beats⭐ torrent
Justin Bieber (ETTV)  Playlist Mp3~320   kbps~ Beats⭐ torrent


Download Torrent "Damn Yankees - Damn Yankees (1990) (PBTHAL LP 24-96) [FLAC] vtwin88cube"

IMDB Details
Description:

N/A

Genre:

N/A

Download Torrent (Magnet)
Download Torrent (File)

Seeds: 83
Leechers: 29

Uploaded by:
vtwin88cube


Category:
Music > FLAC


Details
Title:Damn Yankees - Damn Yankees (1990) (PBTHAL LP 24-96) [FLAC] vtwin88cube
Description:
Damn Yankees
Damn Yankees (1990)
FLAC LOSSLESS 24bit-96kHz
MOV PBTHAL Vinyl Rip


Not my rip. Any questions about the
eqipment used can be found in the
lineage text.


allmusic.com...

For a brief time in the early '90s, the supergroup Damn Yankees enjoyed a considerable amount of success on the arena rock circuit. Comprised of guitarist Ted Nugent, Styx's Tommy Shaw, Night Ranger's Jack Blades, and drummer Michael Cartellone, Damn Yankees arrived during the final moments of pop-metal's heyday, and their music didn't stray from that radio-friendly format at all. The group's self-titled debut album spawned several hits in 1990, including the Top Ten power ballad "High Enough" and the radio hit "Coming of Age." Although they proved to be a popular concert draw (Nugent even made headlines for his unchained behavior on-stage, which included shooting arrows into an effigy of Saddam Hussein), the band's follow-up effort, Don't Tread, didn't fare nearly as well. The group disbanded soon after, with Tommy Shaw and Jack Blades continuing to work together as Shaw Blades.


foobar2000 1.4.3 / Dynamic Range Meter 1.1.1
log date: 2021-04-01 22:00:47

--------------------------------------------------------------------------------
Analyzed: Damn Yankees / Damn Yankees
--------------------------------------------------------------------------------

DR         Peak         RMS     Duration Track
--------------------------------------------------------------------------------
DR12      -0.70 dB   -15.17 dB      4:21 01-Coming Of Age
DR12      -1.53 dB   -16.47 dB      4:30 02-Bad Reputation
DR10      -1.89 dB   -15.76 dB      4:04 03-Runaway
DR11      -2.24 dB   -16.71 dB      4:45 04-High Enough
DR11      -1.82 dB   -15.07 dB      4:43 05-Damn Yankees
DR12      -1.81 dB   -16.93 dB      5:41 06-Come Again
DR12      -1.23 dB   -17.02 dB      4:16 07-Mystified
DR12      -0.70 dB   -16.26 dB      4:28 08-Rock City
DR12      -1.67 dB   -16.25 dB      4:34 09-Tell Me How You Want It
DR12      -2.65 dB   -17.06 dB      4:29 10-Piledriver


Number of tracks:  10
Official DR value: DR12

Samplerate:        96000 Hz
Channels:          2
Bits per sample:   24
Bitrate:           3185 kbps
Codec:             FLAC




Support the artists...
buy it if you like it!

Sharing since 2010
Thanks for Seeding!
Cheers ;)
88
Category:Music > FLAC
Lang:Unknown/NA
Total Size:1.02 GB
Info Hash:967c12f497d1eddbdb4d8baf52fe2a3775f13069
Added By:vtwin88cube
Date Added:15-06-2021 23:25:05

  

Files

File List: 
 File Size
00.-Damn Yankees - Damn Yankees.m3u228.00 B
01.-Coming Of Age.flac101 MB
02.-Bad Reputation.flac104 MB
03.-Runaway.flac93 MB
04.-High Enough.flac105 MB
05.-Damn Yankees.flac110 MB
06.-Come Again.flac125 MB
07.-Mystified.flac95 MB
08.-Rock City.flac103 MB
09.-Tell Me How You Want It.flac106 MB
10.-Piledriver.flac102 MB
DR12.txt1.31 kB
folder.jpg65.44 kB
lineage.txt563.00 B



Comments

There are currently no comments. Be the first one to write something !