natkhat Ted Lasso S02E01 1 Sarpatta 2160p Out of Death 2021 Titanic The White Lotus S01E03 wrath of man ettv Cruella 2021 Space Jam A New Legacy 2021 Gunpowder Milkshake 2021 The Tomorrow War 2021 Wrath of Man 2021 Rick and Morty S05E05 Evil S02E06 Snake Eyes 2021 Power Book III Raising Kanan S01E02 Luca 2021 escape room f9 Wwe ted lasso Roswell New Mexico s03e01 evo Escape Room Tournament of Champions 2021 14 Phere Below Deck Mediterranean s06e05 Evil old fast and furious  jolt Superman and Lois Midnight in the Switchgrass 2021 fast and furious 9 Fast 9 Black Widow 2021 hostel daze the tomorrow war  wwe raw a quiet place part ii 2021 hungama 2 kingdom DC week chutzpah 0 Blood Red Sky 2021 Loki S01E06 Rick and Morty S05E06 batman Pig 2021 toofan Blood Red Sky xxx masters of the universe The Bachelorette S17E08 Infinite 2021 Jungle Cruise 2021 HINDI 2021 mALAYALAM loki Old 2021 Tamil  Animal kingdom the flash The Boss Baby Family Business 2021 Animal Kingdom S05E03 rick and morty black widow sarpatta parambarai jungle cruise ita ddr brazzers the forever purge 2021 Stillwater 2021 Hindi american dad snake eyes g.i. joe origins 2021 Snake eyes beats mimi Hitmans Wifes Bodyguard 2021 haseen dillruba Jolt 2021 F9 2021 Mimi 2021 
Warning! Use a V.P.N when Downloading Torrents!
Your IP Address is . Location
Your Internet Provider can see when you download torrents! Hide your IP Address with a V.P.N
ETTV warns: You should use V.P.N to hide your torrenting. HIDE ME NOW
ETTV Recommended TV Shows
Holby.City.S23E17.720p.HDTV.x264-ORGANiC[ettv] torrent
Deadliest.Catch.S17E14.The.Crush.720p.WEB.h264-CAFFEiNE[ettv] torrent
Modern.Marvels.S21E01.720p.WEB.h264-BAE[ettv] torrent
David.Makes.Man.S02E06.1080p.WEBRip.x264-CAKES[ettv] torrent
Motherland.Fort.Salem.S02E06.XviD-AFG[ettv] torrent
Body.Cam.S04E07.720p.WEB.h264-BAE[ettv] torrent

ETTV Recommended SD
The.Last.Letter.From.Your.Lover.2021.HDRip.XviD.AC3-EVO torrent
Assassins.Vow.2021.HDRip.XviD.AC3-EVO torrent
The.Christmas.Dance.2021.HDRip.XviD.AC3-EVO torrent
Meander.2021.HDRip.XviD.B4ND1T69 torrent

ETTV Recommended HD
Jolt (2021)[VEBRip 1080p x264 by alE13 AC3][Audio Eng\PL][Sub Eng\PL][Eng] torrent
Blood Red Sky 2021 1080p WEB-Rip H264 AC3 5-1 KINGDOM-RG torrent
For.Your.Eyes.Only.1981.1080p.BluRay.10bit.x265-HazMatt.mkv torrent
Luca.2021.1080p.Bluray.DTS-HD.MA.7.1.X264-EVO torrent

ETTV Recommended UHD
American.Hustle.2013.4K.SDR.2160p.WEBDL Ita Eng x265-NAHOM torrent
A.Quiet.Place.2018.BDRip.2160p.UHD.HDR.Multilang.TrueHD.DD5.1.gerald99 torrent
A.Quiet.Place.Part.II.2020.BDRip.2160p.UHD.HDR.Multilang.TrueHD.DD5.1.gerald99 torrent
Pokémon.Detective.Pikachu.2019.2160p.UHD.BluRay.REMUX.HDR.HEVC.Aymos.7.1-SYS.mkv torrent
Passengers.2016.2160p.UHD.BluRay.REMUX.HDR.HEVC.ATMOS.7.1-SYS.mkv torrent
Snatch.2000.BDRip.2160p.UHD.HDR.Eng.TrueHD.DD5.1.gerald99 torrent

ETTV Recommended Cam
Fast.And.Furious.9.2021. CAM NEW SOURCE CLEAN SomeCoontS torrent
Escape Room: Tournament of Champions (2021) 720p CAMRip [Hindi-Sub] x264 1XBET torrent
Snake.Eyes.2021.720p.HDCAM.SLOTSLIGHTS.mkv torrent
Off.the.Rails.2021.720p.HDCAM.SLOTSLIGHTS.mkv torrent

ETTV Recommended Foreign
Skinwalker (2021) 1080p WEBRip Latino Subbed torrent
The.Hate.U.Give - Il.Coraggio.Della.Verita.2018.iTA.ENG.AC3.SUB.iTA.ENG.BluRay.1080p.x264.jeddak-MIRCrew torrent
Tempting Hearts 2021 1080p Chinese HDRip HC HEVC H265 BONE torrent
Jolt-Rabbia assassina (2021) ITA-ENG Ac3 5.1 WEBRip 1080p H264 [ArMor] torrent
Come True (2020) ITA-ENG Ac3 5.1 BDRip 1080p H264 [ArMor] torrent
Miss Fisher & the Crypt of Tears (2020) BluRay 1080p.H264 Ita Eng AC3 5.1 Sub Ita Eng - realDMDJ torrent

ETTV Recommended Misc
Collection Ed Sheeran (ETTV)  Playlist Mp3~320   kbps~ Beats⭐ torrent
Bruce Springsteen - Boss Collection '73-'02 (PBTHAL 24-96) [FLAC] vtwin88cube torrent
21 Savage Complete Collection (ETTV)  Playlist Mp3~320   kbps~ Beats⭐ torrent
500 Greatest  Rock Songs Of All Time  (ETTV)  Playlist Mp3~320   kbps~ Beats⭐ torrent
Soulja Boy - Big Draco (ETTV)  Playlist Mp3~320   kbps~ Beats⭐ torrent
Fleetwood Mac - Best Of 1969-1987 (PBTHAL 24-96) [FLAC] vtwin88cube torrent


Download Torrent "Attack on Titan S02 2013 1080p 10bit BluRay English Japanese x265 HEVC - mk..."

IMDB Details
Description:

N/A

Genre:

N/A

Download Torrent (Magnet)
Download Torrent (File)

Seeds: 45
Leechers: 14

Uploaded by:
uploader6969


Category:
Anime > Dubbed/Subbed


Details
Title:Attack on Titan S02 2013 1080p 10bit BluRay English Japanese x265 HEVC - mk...
Description:




General
Unique ID                                : 25809021879875378629675204311873900756 (0x136AA305CEF5CF3DFC0BCD0AAC0250D4)
Complete name                            : E:\Encode\Attack on Titan S02 2013 1080p 10bit BluRay English Japanese x265 HEVC - mkvAnime [Telly]\Attack on Titan S02E01 1080p 10bit BluRay English Japanese 5.1 x265 - mkvAnime [Telly].mkv
Format                                   : Matroska
Format version                           : Version 4
File size                                : 843 MiB
Duration                                 : 24 min 12 s
Overall bit rate                         : 4 868 kb/s
Movie name                               : Encoded By: mkvAnime
Encoded date                             : UTC 2021-06-18 07:34:21
Writing application                      : mkvmerge v40.0.0 ('Old Town Road + Pony') 64-bit
Writing library                          : libebml v1.3.9 + libmatroska v1.5.2
Website                                  : Google Search - mkvAnime.com
Video
ID                                       : 1
Format                                   : HEVC
Format/Info                              : High Efficiency Video Coding
Format profile                           : Main [email protected]@Main
Codec ID                                 : V_MPEGH/ISO/HEVC
Duration                                 : 24 min 12 s
Bit rate                                 : 4 316 kb/s
Width                                    : 1 920 pixels
Height                                   : 1 080 pixels
Display aspect ratio                     : 16:9
Frame rate mode                          : Constant
Frame rate                               : 23.976 (24000/1001) FPS
Color space                              : YUV
Chroma subsampling                       : 4:2:0
Bit depth                                : 10 bits
Bits/(Pixel*Frame)                       : 0.087
Stream size                              : 747 MiB (89%)
Title                                    : mkvAnime
Writing library                          : x265 3.0_RC+13-ae085e5cd8a2:[Windows][GCC 8.2.1][64 bit] 10bit
Encoding settings                        : cpuid=1111039 / frame-threads=2 / numa-pools=+ / wpp / no-pmode / no-pme / no-psnr / no-ssim / log-level=2 / input-csp=1 / input-res=1920x1080 / interlace=0 / total-frames=1429 / level-idc=0 / high-tier=1 / uhd-bd=0 / ref=6 / no-allow-non-conformance / no-repeat-headers / annexb / no-aud / no-hrd / info / hash=0 / no-temporal-layers / open-gop / min-keyint=24 / keyint=240 / gop-lookahead=0 / bframes=8 / b-adapt=2 / b-pyramid / bframe-bias=0 / rc-lookahead=30 / lookahead-slices=0 / scenecut=40 / radl=0 / no-splice / no-intra-refresh / ctu=32 / min-cu-size=8 / rect / no-amp / max-tu-size=32 / tu-inter-depth=1 / tu-intra-depth=1 / limit-tu=0 / rdoq-level=2 / dynamic-rd=0.00 / no-ssim-rd / signhide / no-tskip / nr-intra=0 / nr-inter=0 / no-constrained-intra / no-strong-intra-smoothing / max-merge=3 / limit-refs=3 / limit-modes / me=3 / subme=5 / merange=57 / temporal-mvp / weightp / no-weightb / no-analyze-src-pics / deblock=-3:-3 / no-sao / no-sao-non-deblock / rd=4 / no-early-skip / rskip / no-fast-intra / no-tskip-fast / no-cu-lossless / no-b-intra / no-splitrd-skip / rdpenalty=0 / psy-rd=2.00 / psy-rdoq=1.00 / no-rd-refine / no-lossless / cbqpoffs=0 / crqpoffs=0 / rc=crf / crf=20.0 / qcomp=0.60 / qpstep=4 / stats-write=0 / stats-read=0 / ipratio=1.40 / pbratio=1.30 / aq-mode=2 / aq-strength=1.00 / cutree / zone-count=0 / no-strict-cbr / qg-size=32 / no-rc-grain / qpmax=69 / qpmin=0 / no-const-vbv / sar=1 / overscan=0 / videoformat=5 / range=0 / colorprim=1 / transfer=1 / colormatrix=1 / chromaloc=0 / display-window=0 / max-cll=0,0 / min-luma=0 / max-luma=1023 / log2-max-poc-lsb=8 / vui-timing-info / vui-hrd-info / slices=1 / no-opt-qp-pps / no-opt-ref-list-length-pps / no-multi-pass-opt-rps / scenecut-bias=0.05 / no-opt-cu-delta-qp / no-aq-motion / no-hdr / no-hdr-opt / no-dhdr10-opt / no-idr-recovery-sei / analysis-reuse-level=5 / scale-factor=0 / refine-intra=0 / refine-inter=0 / refine-mv=0 / refine-ctu-distortion=0 / no-limit-sao / ctu-info=0 / no-lowpass-dct / refine-analysis-type=0 / copy-pic=1 / max-ausize-factor=1.0 / no-dynamic-refine / no-single-sei / no-hevc-aq / qp-adaptation-range=1.00
Default                                  : Yes
Forced                                   : No
Color range                              : Limited
Color primaries                          : BT.709
Transfer characteristics                 : BT.709
Matrix coefficients                      : BT.709
Audio #1
ID                                       : 2
Format                                   : AAC LC
Format/Info                              : Advanced Audio Codec Low Complexity
Codec ID                                 : A_AAC-2
Duration                                 : 24 min 12 s
Bit rate                                 : 413 kb/s
Channel(s)                               : 6 channels
Channel layout                           : C L R Ls Rs LFE
Sampling rate                            : 48.0 kHz
Frame rate                               : 46.875 FPS (1024 SPF)
Compression mode                         : Lossy
Delay relative to video                  : 20 ms
Stream size                              : 71.5 MiB (8%)
Title                                    : mkvAnime
Language                                 : English
Default                                  : Yes
Forced                                   : No
Audio #2
ID                                       : 3
Format                                   : AAC LC
Format/Info                              : Advanced Audio Codec Low Complexity
Codec ID                                 : A_AAC-2
Duration                                 : 24 min 12 s
Bit rate                                 : 128 kb/s
Channel(s)                               : 2 channels
Channel layout                           : L R
Sampling rate                            : 48.0 kHz
Frame rate                               : 46.875 FPS (1024 SPF)
Compression mode                         : Lossy
Delay relative to video                  : 20 ms
Stream size                              : 22.2 MiB (3%)
Title                                    : mkvAnime
Language                                 : Japanese
Default                                  : No
Forced                                   : No
Text
ID                                       : 4
Format                                   : PGS
Muxing mode                              : zlib
Codec ID                                 : S_HDMV/PGS
Codec ID/Info                            : Picture based subtitle format used on BDs/HD-DVDs
Duration                                 : 23 min 56 s
Bit rate                                 : 26.6 kb/s
Count of elements                        : 474
Stream size                              : 4.55 MiB (1%)
Title                                    : mkvAnime
Language                                 : English
Default                                  : No
Forced                                   : No








Category:Anime > Dubbed/Subbed
Lang:English  English
Total Size:9.36 GB
Info Hash:e47a8ad1bc229a8712a8b9f7a855bc06946fa258
Added By:uploader6969
Date Added:18-06-2021 09:07:02

  

Files

File List: 
 File Size
Attack on Titan S02E01 1080p 10bit BluRay English Japanese 5.1 x265 - mkvAnime [Telly].mkv843 MB
Attack on Titan S02E02 1080p 10bit BluRay English Japanese 5.1 x265 - mkvAnime [Telly].mkv745 MB
Attack on Titan S02E03 1080p 10bit BluRay English Japanese 5.1 x265 - mkvAnime [Telly].mkv692 MB
Attack on Titan S02E04 1080p 10bit BluRay English Japanese 5.1 x265 - mkvAnime [Telly].mkv670 MB
Attack on Titan S02E05 1080p 10bit BluRay English Japanese 5.1 x265 - mkvAnime [Telly].mkv1.01 GB
Attack on Titan S02E06 1080p 10bit BluRay English Japanese 5.1 x265 - mkvAnime [Telly].mkv735 MB
Attack on Titan S02E07 1080p 10bit BluRay English Japanese 5.1 x265 - mkvAnime [Telly].mkv821 MB
Attack on Titan S02E08 1080p 10bit BluRay English Japanese 5.1 x265 - mkvAnime [Telly].mkv748 MB
Attack on Titan S02E09 1080p 10bit BluRay English Japanese 5.1 x265 - mkvAnime [Telly].mkv732 MB
Attack on Titan S02E10 1080p 10bit BluRay English Japanese 5.1 x265 - mkvAnime [Telly].mkv882 MB
Attack on Titan S02E11 1080p 10bit BluRay English Japanese 5.1 x265 - mkvAnime [Telly].mkv897 MB
Attack on Titan S02E12 1080p 10bit BluRay English Japanese 5.1 x265 - mkvAnime [Telly].mkv780 MB



Comments

There are currently no comments. Be the first one to write something !