natkhat Ted Lasso S02E01 1 Sarpatta 2160p Out of Death 2021 Titanic The White Lotus S01E03 wrath of man ettv Cruella 2021 Space Jam A New Legacy 2021 Gunpowder Milkshake 2021 The Tomorrow War 2021 Wrath of Man 2021 Rick and Morty S05E05 Evil S02E06 Snake Eyes 2021 Power Book III Raising Kanan S01E02 Luca 2021 escape room f9 Wwe ted lasso Roswell New Mexico s03e01 evo Escape Room Tournament of Champions 2021 14 Phere Below Deck Mediterranean s06e05 Evil old fast and furious  jolt Superman and Lois Midnight in the Switchgrass 2021 fast and furious 9 Fast 9 Black Widow 2021 hostel daze the tomorrow war  wwe raw a quiet place part ii 2021 hungama 2 kingdom DC week chutzpah 0 Blood Red Sky 2021 Loki S01E06 Rick and Morty S05E06 batman Pig 2021 toofan Blood Red Sky xxx masters of the universe The Bachelorette S17E08 Infinite 2021 Jungle Cruise 2021 HINDI 2021 mALAYALAM loki Old 2021 Tamil  Animal kingdom the flash The Boss Baby Family Business 2021 Animal Kingdom S05E03 rick and morty black widow sarpatta parambarai jungle cruise ita ddr brazzers the forever purge 2021 Stillwater 2021 Hindi american dad snake eyes g.i. joe origins 2021 Snake eyes beats mimi Hitmans Wifes Bodyguard 2021 haseen dillruba Jolt 2021 F9 2021 Mimi 2021 
Warning! Use a V.P.N when Downloading Torrents!
Your IP Address is . Location
Your Internet Provider can see when you download torrents! Hide your IP Address with a V.P.N
ETTV warns: You should use V.P.N to hide your torrenting. HIDE ME NOW
ETTV Recommended TV Shows
Holby.City.S23E17.720p.HDTV.x264-ORGANiC[ettv] torrent
Deadliest.Catch.S17E14.The.Crush.720p.WEB.h264-CAFFEiNE[ettv] torrent
Modern.Marvels.S21E01.720p.WEB.h264-BAE[ettv] torrent
David.Makes.Man.S02E06.1080p.WEBRip.x264-CAKES[ettv] torrent
Motherland.Fort.Salem.S02E06.XviD-AFG[ettv] torrent
Body.Cam.S04E07.720p.WEB.h264-BAE[ettv] torrent

ETTV Recommended SD
The.Last.Letter.From.Your.Lover.2021.HDRip.XviD.AC3-EVO torrent
Assassins.Vow.2021.HDRip.XviD.AC3-EVO torrent
The.Christmas.Dance.2021.HDRip.XviD.AC3-EVO torrent
Meander.2021.HDRip.XviD.B4ND1T69 torrent

ETTV Recommended HD
Jolt (2021)[VEBRip 1080p x264 by alE13 AC3][Audio Eng\PL][Sub Eng\PL][Eng] torrent
Blood Red Sky 2021 1080p WEB-Rip H264 AC3 5-1 KINGDOM-RG torrent
For.Your.Eyes.Only.1981.1080p.BluRay.10bit.x265-HazMatt.mkv torrent
Luca.2021.1080p.Bluray.DTS-HD.MA.7.1.X264-EVO torrent

ETTV Recommended UHD
American.Hustle.2013.4K.SDR.2160p.WEBDL Ita Eng x265-NAHOM torrent
A.Quiet.Place.2018.BDRip.2160p.UHD.HDR.Multilang.TrueHD.DD5.1.gerald99 torrent
A.Quiet.Place.Part.II.2020.BDRip.2160p.UHD.HDR.Multilang.TrueHD.DD5.1.gerald99 torrent
Pokémon.Detective.Pikachu.2019.2160p.UHD.BluRay.REMUX.HDR.HEVC.Aymos.7.1-SYS.mkv torrent
Passengers.2016.2160p.UHD.BluRay.REMUX.HDR.HEVC.ATMOS.7.1-SYS.mkv torrent
Snatch.2000.BDRip.2160p.UHD.HDR.Eng.TrueHD.DD5.1.gerald99 torrent

ETTV Recommended Cam
Fast.And.Furious.9.2021. CAM NEW SOURCE CLEAN SomeCoontS torrent
Escape Room: Tournament of Champions (2021) 720p CAMRip [Hindi-Sub] x264 1XBET torrent
Snake.Eyes.2021.720p.HDCAM.SLOTSLIGHTS.mkv torrent
Off.the.Rails.2021.720p.HDCAM.SLOTSLIGHTS.mkv torrent

ETTV Recommended Foreign
Skinwalker (2021) 1080p WEBRip Latino Subbed torrent
The.Hate.U.Give - Il.Coraggio.Della.Verita.2018.iTA.ENG.AC3.SUB.iTA.ENG.BluRay.1080p.x264.jeddak-MIRCrew torrent
Tempting Hearts 2021 1080p Chinese HDRip HC HEVC H265 BONE torrent
Jolt-Rabbia assassina (2021) ITA-ENG Ac3 5.1 WEBRip 1080p H264 [ArMor] torrent
Come True (2020) ITA-ENG Ac3 5.1 BDRip 1080p H264 [ArMor] torrent
Miss Fisher & the Crypt of Tears (2020) BluRay 1080p.H264 Ita Eng AC3 5.1 Sub Ita Eng - realDMDJ torrent

ETTV Recommended Misc
Collection Ed Sheeran (ETTV)  Playlist Mp3~320   kbps~ Beats⭐ torrent
Bruce Springsteen - Boss Collection '73-'02 (PBTHAL 24-96) [FLAC] vtwin88cube torrent
21 Savage Complete Collection (ETTV)  Playlist Mp3~320   kbps~ Beats⭐ torrent
500 Greatest  Rock Songs Of All Time  (ETTV)  Playlist Mp3~320   kbps~ Beats⭐ torrent
Soulja Boy - Big Draco (ETTV)  Playlist Mp3~320   kbps~ Beats⭐ torrent
Fleetwood Mac - Best Of 1969-1987 (PBTHAL 24-96) [FLAC] vtwin88cube torrent


Download Torrent "Whisper of the Heart 1995 720p BluRay English Japanese x265 - mkvAnime [Tel..."

IMDB Details
Description:

A love story between a girl who loves reading books, and a boy who has previously checked out all of the library books she chooses.

Genre:

Animation, Drama, Family, Music, Romance

Download Torrent (Magnet)
Download Torrent (File)

Seeds: 47
Leechers: 4

Uploaded by:
uploader6969


Category:
Anime > Dubbed/Subbed


Details
Title:Whisper of the Heart 1995 720p BluRay English Japanese x265 - mkvAnime [Tel...
Description:




General
Unique ID                                : 208865001116510666952701409293007039076 (0x9D21EF9D989C1A4C1DC28D98EDF7AA64)
Complete name                            : E:\Encode\Whisper of the Heart 1995 720p BluRay English Japanese x265 - mkvAnime [Telly].mkv
Format                                   : Matroska
Format version                           : Version 4
File size                                : 950 MiB
Duration                                 : 1 h 50 min
Overall bit rate                         : 1 198 kb/s
Movie name                               : mkvAnime - Telly / Encoded By: mkvAnime
Encoded date                             : UTC 2021-06-20 18:39:21
Writing application                      : mkvmerge v39.0.0 ('In The Waiting Line') 64-bit
Writing library                          : libebml v1.3.9 + libmatroska v1.5.2
Cover                                    : Yes
Attachments                              : cover.jpg / cover.jpg / ANNA____.ttf / IHATCS_.ttf
Website                                  : Google Search - mkvAnime.com
Video
ID                                       : 1
Format                                   : HEVC
Format/Info                              : High Efficiency Video Coding
Format profile                           : [email protected]@Main
Codec ID                                 : V_MPEGH/ISO/HEVC
Duration                                 : 1 h 50 min
Bit rate                                 : 810 kb/s
Width                                    : 1 280 pixels
Height                                   : 688 pixels
Display aspect ratio                     : 1.85:1
Frame rate mode                          : Constant
Frame rate                               : 23.976 (24000/1001) FPS
Color space                              : YUV
Chroma subsampling                       : 4:2:0
Bit depth                                : 8 bits
Bits/(Pixel*Frame)                       : 0.038
Stream size                              : 642 MiB (68%)
Title                                    : mkvAnime - Telly
Writing library                          : x265 3.2+9-971180b100f8:[Windows][GCC 9.2.0][64 bit] 8bit+10bit+12bit
Encoding settings                        : cpuid=1111039 / frame-threads=3 / numa-pools=12 / wpp / no-pmode / no-pme / no-psnr / no-ssim / log-level=2 / input-csp=1 / input-res=1280x688 / interlace=0 / total-frames=159456 / level-idc=0 / high-tier=1 / uhd-bd=0 / ref=2 / no-allow-non-conformance / no-repeat-headers / annexb / no-aud / no-hrd / info / hash=0 / no-temporal-layers / open-gop / min-keyint=23 / keyint=250 / gop-lookahead=0 / bframes=4 / b-adapt=0 / b-pyramid / bframe-bias=0 / rc-lookahead=15 / lookahead-slices=0 / scenecut=40 / radl=0 / no-splice / no-intra-refresh / ctu=64 / min-cu-size=8 / no-rect / no-amp / max-tu-size=32 / tu-inter-depth=1 / tu-intra-depth=1 / limit-tu=0 / rdoq-level=0 / dynamic-rd=0.00 / no-ssim-rd / signhide / no-tskip / nr-intra=0 / nr-inter=0 / no-constrained-intra / strong-intra-smoothing / max-merge=2 / limit-refs=3 / no-limit-modes / me=1 / subme=2 / merange=57 / temporal-mvp / no-frame-dup / no-hme / weightp / no-weightb / no-analyze-src-pics / deblock=0:0 / sao / no-sao-non-deblock / rd=2 / selective-sao=4 / early-skip / rskip / fast-intra / no-tskip-fast / no-cu-lossless / no-b-intra / no-splitrd-skip / rdpenalty=0 / psy-rd=2.00 / psy-rdoq=0.00 / no-rd-refine / no-lossless / cbqpoffs=0 / crqpoffs=0 / rc=abr / bitrate=810 / qcomp=0.60 / qpstep=4 / stats-write=0 / stats-read=0 / ipratio=1.40 / pbratio=1.30 / aq-mode=2 / aq-strength=1.00 / cutree / zone-count=0 / no-strict-cbr / qg-size=32 / no-rc-grain / qpmax=69 / qpmin=0 / no-const-vbv / sar=0 / overscan=0 / videoformat=5 / range=0 / colorprim=2 / transfer=2 / colormatrix=2 / chromaloc=0 / display-window=0 / cll=0,0 / min-luma=0 / max-luma=255 / log2-max-poc-lsb=8 / vui-timing-info / vui-hrd-info / slices=1 / no-opt-qp-pps / no-opt-ref-list-length-pps / no-multi-pass-opt-rps / scenecut-bias=0.05 / no-opt-cu-delta-qp / no-aq-motion / no-hdr / no-hdr-opt / no-dhdr10-opt / no-idr-recovery-sei / analysis-reuse-level=5 / scale-factor=0 / refine-intra=0 / refine-inter=0 / refine-mv=1 / refine-ctu-distortion=0 / no-limit-sao / ctu-info=0 / no-lowpass-dct / refine-analysis-type=0 / copy-pic=1 / max-ausize-factor=1.0 / no-dynamic-refine / no-single-sei / no-hevc-aq / no-svt / no-field / qp-adaptation-range=1.00
Default                                  : Yes
Forced                                   : No
Audio #1
ID                                       : 2
Format                                   : AAC LC
Format/Info                              : Advanced Audio Codec Low Complexity
Codec ID                                 : A_AAC-2
Duration                                 : 1 h 50 min
Bit rate                                 : 192 kb/s
Channel(s)                               : 6 channels
Channel layout                           : C L R Ls Rs LFE
Sampling rate                            : 48.0 kHz
Frame rate                               : 46.875 FPS (1024 SPF)
Compression mode                         : Lossy
Delay relative to video                  : 20 ms
Stream size                              : 152 MiB (16%)
Title                                    : mkvAnime
Language                                 : English
Default                                  : No
Forced                                   : No
Audio #2
ID                                       : 3
Format                                   : AAC LC
Format/Info                              : Advanced Audio Codec Low Complexity
Codec ID                                 : A_AAC-2
Duration                                 : 1 h 50 min
Bit rate                                 : 192 kb/s
Channel(s)                               : 6 channels
Channel layout                           : C L R Ls Rs LFE
Sampling rate                            : 48.0 kHz
Frame rate                               : 46.875 FPS (1024 SPF)
Compression mode                         : Lossy
Delay relative to video                  : 20 ms
Stream size                              : 152 MiB (16%)
Title                                    : mkvAnime
Language                                 : Japanese
Default                                  : No
Forced                                   : No
Text #1
ID                                       : 4
Format                                   : ASS
Codec ID                                 : S_TEXT/ASS
Codec ID/Info                            : Advanced Sub Station Alpha
Duration                                 : 1 h 50 min
Bit rate                                 : 4 b/s
Count of elements                        : 66
Compression mode                         : Lossless
Stream size                              : 3.42 KiB (0%)
Title                                    : mkvAnime
Language                                 : English
Default                                  : No
Forced                                   : No
Text #2
ID                                       : 5
Format                                   : ASS
Codec ID                                 : S_TEXT/ASS
Codec ID/Info                            : Advanced Sub Station Alpha
Duration                                 : 1 h 50 min
Bit rate                                 : 81 b/s
Count of elements                        : 1166
Compression mode                         : Lossless
Stream size                              : 65.9 KiB (0%)
Title                                    : mkvAnime
Language                                 : English
Default                                  : No
Forced                                   : No
Menu
00:00:00.000                             : en:00:00:00.000
00:06:23.883                             : en:00:06:23.883
00:11:59.218                             : en:00:11:59.218
00:17:43.479                             : en:00:17:43.479
00:23:03.382                             : en:00:23:03.382
00:27:54.256                             : en:00:27:54.256
00:33:07.110                             : en:00:33:07.110
00:38:05.283                             : en:00:38:05.283
00:43:42.745                             : en:00:43:42.745
00:47:36.771                             : en:00:47:36.771
00:52:05.956                             : en:00:52:05.956
00:54:48.285                             : en:00:54:48.285
00:57:41.666                             : en:00:57:41.666
01:01:45.410                             : en:01:01:45.410
01:04:40.335                             : en:01:04:40.335
01:09:20.364                             : en:01:09:20.364
01:15:35.823                             : en:01:15:35.823
01:21:16.121                             : en:01:21:16.121
01:26:25.847                             : en:01:26:25.847
01:30:05.483                             : en:01:30:05.483
01:34:18.861                             : en:01:34:18.861
01:39:35.761                             : en:01:39:35.761
01:44:40.107                             : en:01:44:40.107
01:46:55.909                             : en:01:46:55.909









Category:Anime > Dubbed/Subbed
Lang:English  English
Total Size:950 MB
Info Hash:ff2dce3ff4b5b3becbf207f820a6706b0920b1d0
Added By:uploader6969
Date Added:21-06-2021 07:20:13

  

Files

File List: 
 File Size
Whisper of the Heart 1995 720p BluRay English Japanese x265 - mkvAnime [Telly].mkv950 MB



Comments

There are currently no comments. Be the first one to write something !