0 escape room tournament of champions 2021 the forever purge 2021 toofan 14 phere  fast and furious sarpatta Parambarai evo space jam Hostel Daze S02 Ted Lasso s02e02 Blood Red Sky 2021 malayalam  American Horror Stories S01E03 chutzpah Hungama 2021 wrath of man 2021 Jolt 2021 The Tomorrow War 2021 2160p beats Ted Lasso s02e01 fast 9 bad batch Hitmans Wifes Bodyguard 2021 Evo rick and morty tamil 2021 masters of the universe revelation Walker S01E17 Snake Eyes 2021 F9 Masters of the Universe marvel week hindi 2021 tamil Good Girls s04e15 hindi black widow kingdom ashin of the north Kanye west The Flash S07E18 Old 2021 infinite 2021 the flash ita Space Jam A New Legacy 2021 Old ted lasso Black Widow 2021 Gunpowder Milkshake 2021 midnight in the switchgrass 2021 feels like ishq lucifer  jungle Cruise Haseen Dillruba The Good Fight S05E05 Blood Red Sky wrath of man F9 2021 Good Girls s04e16 jolt pig 2021 kingdom hungama2 xxx Luca 2021 Sarpatta Alone S08E08 Hostel Daze 2 snake eyes fast and furious 9 hostel daze  hungama 2 Big Brother s23e07 ddr escape room Cruella 2021 hungama 2 2021 The outpost hungama ettv The Bad Batch s01e13 loki Kung fu Kung Fu S01E13 hostel daze season 2 wwe The Outpost s04e02 a quiet place part ii 2021 
Warning! Use a V.P.N when Downloading Torrents!
Your IP Address is . Location
Your Internet Provider can see when you download torrents! Hide your IP Address with a V.P.N
ETTV warns: You should use V.P.N to hide your torrenting. HIDE ME NOW
ETTV Recommended TV Shows
Star.Wars.The.Bad.Batch.S01E13.720p.x265-ZMNT[ettv] torrent
Desus.and.Mero.2019.S03E34.1080p.WEB.h264-KOGi[ettv] torrent
WWE Friday Night SmackDown 2021 07 23 HDTV x264-NWCHD [TJET] torrent
WWE 205 Live 2021 07 23 720p Lo WEB h264-HEEL [TJET] torrent
Secret.Celebrity.Renovation.S01E03.720p.WEB.h264-KOGi[ettv] torrent
Backyard.Bar.Wars.S01E03.720p.WEBRip.x264-BAE[ettv] torrent

ETTV Recommended SD
Strange.Company.2021.HDRip.XviD.AC3-EVO torrent
The.Last.Letter.From.Your.Lover.2021.HDRip.XviD.AC3-EVO torrent
Assassins.Vow.2021.HDRip.XviD.AC3-EVO torrent
The.Christmas.Dance.2021.HDRip.XviD.AC3-EVO torrent

ETTV Recommended HD
Live.and.Let.Die.1973.1080p.BluRay.10bit.x265-HazMatt.mkv torrent
Repo Man 1984 720p BluRay x264 BONE torrent
The.Christmas.Dance.2021.1080p.AMZN.WEB-DL.DDP5.1.H.264-EVO.mkv torrent
Assassins Vow 2021 1080p AMZN WEB-DL DDP2 0 H 264-EVO torrent

ETTV Recommended UHD
Snyders.Cut.Justice.League.2021.DISC1.Cropped.2160p.UHD.HDR.Multilang.TrueHD.DD5.1.gerald99 torrent
Snyders.Cut.Justice.League.2021.DISC2.Cropped.2160p.UHD.HDR.Multilang.TrueHD.DD5.1.gerald99 torrent
American.Psycho.2000.Uncut.2160p.UHD.HDR.Eng.TrueHD.DD5.1.gerald99 torrent
All.Is.True.2018.2160p.WEBRip.UHD.HDR.Eng.DTS-HD.MA.DD5.1.gerald99 torrent
London Has Fallen 2016 UHD BluRay 2160p DTS-X 7.1 HEVC REMUX-SYS.mkv torrent
American.Hustle.2013.4K.SDR.2160p.WEBDL Ita Eng x265-NAHOM torrent

ETTV Recommended Cam
Fast.And.Furious.9.2021. CAM NEW SOURCE CLEAN SomeCoontS torrent
Werewolves Within (2021) 720p English New HDCAM x264 AAC By Full4Movies torrent
Escape Room: Tournament of Champions (2021) 720p CAMRip [Hindi-Sub] x264 1XBET torrent

ETTV Recommended Foreign
Wheel.of.Fortune.and.Fantasy.2021.1080p.WEBRip.x264.HORiZON-ArtSubs torrent
(S)ex List - What's Your Number (2011 ITA ENG) 1080p Bluray H264 XFM torrent
The.Passion.of.Joan.of.Arc.[La.Passion.de.Jeanne.d'Arc].1928.1080p.BluRay.x264.AC3.HORiZON-ArtSubs torrent
The.Night.Clerk - I.Segreti.Della.Notte.2020.iTA.ENG.AC3.SUB.iTA.ENG.BluRay.1080p.x264.jeddak-MIRCrew torrent
She Wang Dao (Giant Snake) 2021 HDRip Chinese 1080p HC H264 torrent
Hard Night Falling (2019) ITA AC3 WEBRIP 1080p H264 - LZ .mkv torrent

ETTV Recommended Misc
Jeremih - All About You (2010) Flac torrent
Jay Sean - All Or Nothing (2010) (JP) Flac torrent
Billie Eilish Essentials (ETTV)  Playlist Mp3~320   kbps~ Beats⭐ torrent
Metallica Essentials (ETTV)  Playlist Mp3~320   kbps~ Beats⭐ torrent
Electro-Funk Essentials (ETTV)  Playlist Mp3~320   kbps~ Beats⭐ torrent
2010s Dance Party Essentials (ETTV)  Playlist Mp3~320   kbps~ Beats⭐ torrent


Download Torrent "Wrong Leela 2021 x264 720p WebHD Hindi THE GOPI SAHI"

IMDB Details
Description:

N/A

Genre:

N/A

Download Torrent (Magnet)
Download Torrent (File)

Seeds: 695
Leechers: 272

Uploaded by:
GOPISAHI


Category:
Movies > Bollywood


Details
Title:Wrong Leela 2021 x264 720p WebHD Hindi THE GOPI SAHI
Description:
Join Us On TeleGram

https://t.me/gopisahit



Wrong Leela 2021 x264 720p WebHD Hindi THE GOPI SAHI

Format                         : Matroska
Format version                 : Version 4
File size                      : 730 MiB
Duration                       : 1 h 42 min
Overall bit rate               : 997 kb/s
Movie name                     : Wrong Leela 2021 OPI SAHI
Encoded date                   : UTC 2021-07-20 01:18:12


Video
ID                             : 1
Format                         : AVC
Format/Info                    : Advanced Video Codec
Format profile                 : [email protected]
Format settings                : CABAC / 5 Ref Frames
Format settings, CABAC         : Yes
Format settings, Reference fra : 5 frames
Codec ID                       : V_MPEG4/ISO/AVC
Duration                       : 1 h 42 min
Bit rate                       : 899 kb/s
Width                          : 1 280 pixels
Height                         : 544 pixels
Display aspect ratio           : 2.35:1
Frame rate mode                : Constant
Frame rate                     : 25.000 FPS
Color space                    : YUV
Chroma subsampling             : 4:2:0
Bit depth                      : 8 bits
Scan type                      : Progressive
Bits/(Pixel*Frame)             : 0.052
Stream size                    : 658 MiB (90%)
Title                          : OPI SAHI
Writing library                : x264 core 157 r2935 545de2f

Audio
ID                             : 2
Format                         : AAC LC
Format/Info                    : Advanced Audio Codec Low Complexity
Codec ID                       : A_AAC-2
Duration                       : 1 h 42 min
Bit rate                       : 96.0 kb/s
Channel(s)                     : 2 channels
Channel layout                 : L R
Sampling rate                  : 48.0 kHz
Frame rate                     : 46.875 FPS (1024 SPF)
Compression mode               : Lossy
Delay relative to video        : -101 ms
Stream size                    : 70.7 MiB (10%)
Title                          : GOPI SAHI
Language                       : Hindi
Default                        : Yes
Forced                         : No






Category:Movies > Bollywood
Lang:Hindi  Hindi
Total Size:730 MB
Info Hash:6a8f5bb2813ad55473d3b0cb4d8776c5012f32bd
Added By:GOPISAHI
Date Added:20-07-2021 09:03:34

Files

File List: 
 File Size
Wrong Leela 2021 x264 720p WebHD Hindi THE GOPI SAHI.mkv730 MB



Comments

There are currently no comments. Be the first one to write something !