beats hindi 0 Blood Red Sky 2021 f9 1 suicide squad 2021 The Grand Tour rick and morty Fast and Furious Malayalam  Loki  snake eyes hostel daze xxx fast 9 Wwe evo Ted Lasso S02E02 The Green Knight 2021 tamil 2160p SurrealEstate S01E03 the last mercenary Jolt 2021 Hitmans Wifes Bodyguard 2021 Luca 2021 14 PHERE Wrath of Man formula 1 fast and furious 9 escape room Space Jam A New Legacy 2021 Escape Room Tournament of Champions 2021 The Outpost S04E03 F9 The Fast Saga 2021 Mimi 2021 thittam irandu jungle cruise city of dreams 2  f1 ted lasso Titanic The Green knight  2 Pig 2021 jungle cruise hindi Wrath of Man 2021 grand tour Jungle Cruise 1080p sarpatta parambarai Midnight in the Switchgrass 2021 ita F1 2021  jungle  gunpowder milkshake 2021 The Grand Tour s04e03 The Forever Purge 2021 hindi 2021  City of Dreams f9 2021 Hungama 2 City of Dreams Season 2 dc week The Tomorrow War 2021 mimi Black Widow 2021 A Quiet Place Part II 2021 ddr suicide squad The Suicide Squad 2021 haseen dillruba Old 2021 black widow Snake Eyes 2021 ettv snake eyes g.i. joe origins 2021 ufc the suicide squad luca brazzers Jungle Cruise 2021 3 rurouni kenshin old stillwater 2021 
Warning! Use a V.P.N when Downloading Torrents!
Your IP Address is . Location
Your Internet Provider can see when you download torrents! Hide your IP Address with a V.P.N
ETTV warns: You should use V.P.N to hide your torrenting. HIDE ME NOW
ETTV Recommended TV Shows
Beauty.and.the.Geek.AU.S07E10.HDTV.x264-FQM[ettv] torrent
Naked.and.Afraid.S13E01.1080p.WEB.h264-BAE[ettv] torrent
Animal.Kingdom.US.S05E04.1080p.WEBRip.x264-CAKES[ettv] torrent
Family.Karma.S02E09.720p.WEB.h264-BAE[ettv] torrent
Rick.and.Morty.S05E07.1080p.WEBRip.x264-CAKES[ettv] torrent
60.Minutes.S53E46.1080p.WEB.h264-BAE[ettv] torrent

ETTV Recommended SD
The.Christmas.Dance.2021.HDRip.XviD.AC3-EVO torrent
Meander.2021.HDRip.XviD.B4ND1T69 torrent
Jungle.Cruise.2021.HDRip.XviD.AC3-EVO torrent
The.Last.Mercenary.2021.HDRip.XviD.AC3-EVO torrent

ETTV Recommended HD
Luca.2021.1080p.Bluray.DTS-HD.MA.7.1.X264-EVO torrent
F9.The.Fast. Saga.2021.  1080P. Web-Rip 5.1.H. 264- Beats⭐ torrent
Malicious.Motives.2021.LIFETIME.720p.WEB-DL.AAC2.0.H264-LBR torrent
Monkeybone 2001 1080p BluRay x264 BONE torrent

ETTV Recommended UHD
Pokémon.Detective.Pikachu.2019.2160p.UHD.BluRay.REMUX.HDR.HEVC.Aymos.7.1-SYS.mkv torrent
Passengers.2016.2160p.UHD.BluRay.REMUX.HDR.HEVC.ATMOS.7.1-SYS.mkv torrent
Snatch.2000.BDRip.2160p.UHD.HDR.Eng.TrueHD.DD5.1.gerald99 torrent
The.Water.Diviner.2014.WEBRip.2160p.SDR.HEVC.Eng.DD5.1.gerald99 torrent
Repack.F9.The.Fast.Saga.2021.WEBRip.2160p.UHD.HDR.Eng.DDP5.1-Atmos.DD5.1.gerald99 torrent
Jungle.Cruise.2021.DSNP.WEBRip.2160p.UHD.HDR.Eng.DDP5.1-Atmos.DD5.1.gerald99 torrent

ETTV Recommended Cam
Escape Room: Tournament of Champions (2021) 720p CAMRip [Hindi-Sub] x264 1XBET torrent
Snake.Eyes.2021.720p.HDCAM.SLOTSLIGHTS.mkv torrent
Off.the.Rails.2021.720p.HDCAM.SLOTSLIGHTS.mkv torrent

ETTV Recommended Foreign
Come True (2020) ITA-ENG Ac3 5.1 BDRip 1080p H264 [ArMor] torrent
Miss Fisher & the Crypt of Tears (2020) BluRay 1080p.H264 Ita Eng AC3 5.1 Sub Ita Eng - realDMDJ torrent
F9.2021.SPANiSH.1080p.AMZN.WEB-DL.x264-dem3nt3 torrent
Blood.Red.Sky.2021.Ger.Spa.WEBRip.x264-YG⭐ torrent
Jungle Cruise (2021) Disney - FullHD 1080p.H264 Ita Eng AC3 5.1 Multisub - realDMDJ torrent
Mr.Klein.1976.(Alain Delon-Jeanne Moreau).1080p.BRRip.x264-Classics torrent

ETTV Recommended Misc
Phil Collins - Going Back (2010) Flac torrent
Nicki Minaj - Pink Friday (2010) Flac torrent
Ariana grande  (ETTV)  Playlist Mp3~320   kbps~ Beats⭐ torrent
Justin Bieber (ETTV)  Playlist Mp3~320   kbps~ Beats⭐ torrent
Marie Plassard – Nacarat Pop (ETTV)  Playlist ~320   kbps~ Beats⭐ torrent
S.Téban  Mode Sport (ETTV)  Playlist ~320   kbps~ Beats⭐ torrent


Download Torrent "Black Sabbath - This Is Black Sabbath (2021) (PBTHAL Vinyl 24Bit-96kHz) [FL..."

IMDB Details
Description:

N/A

Genre:

N/A

Download Torrent (Magnet)
Download Torrent (File)

Seeds: 242
Leechers: 113

Uploaded by:
vtwin88cube


Category:
Music > FLAC


Details
Title:Black Sabbath - This Is Black Sabbath (2021) (PBTHAL Vinyl 24Bit-96kHz) [FL...
Description:
Black Sabbath
This Is Black Sabbath (2021)
FLAC LOSSLESS 24bit-96kHz
PBTHAL VINYL TRACKS


Choice cuts from Black Sabbath's first six albums
from 1970 to 1975.

Black Sabbath
Paranoid
Master Of Reality
Vol. 4
Sabbath Bloody Sabbath
Sabotage


allmusic.com...

A metal institution whose influence cannot be overstated, Black Sabbath pioneered the genre as they constructed the framework for subsequent subgenres within metal, with entire movements rising from blueprints laid out in single Sabbath songs. From the end of the '60s and throughout the entirety of the '70s, the band became legendary for the doomy chemistry between its players: Ozzy Osbourne's primal vocals, Tony Iommi's seismic riffing, Bill Ward's bluntly powerful drumming, and Geezer Butler's thunderous basslines all congealed into a sinister breed of hard rock and occult-fixated songcraft the world had never heard before. This untouchable original lineup was responsible for metal masterpieces like 1970's Paranoid, but when they splintered in 1979, Black Sabbath soldiered on with a cast of various, different singers while Osbourne applied his prince of darkness persona to a successful solo career that would span decades. There were various reunions and partial re-formations of the first Black Sabbath lineup, aiming to recapture some of their early evil energy on later period outings like 2013's 13.


foobar2000 1.4.3 / Dynamic Range Meter 1.1.1
log date: 2021-07-19 19:20:22

--------------------------------------------------------------------------------
Analyzed: Black Sabbath / This Is Black Sabbath
--------------------------------------------------------------------------------

DR         Peak         RMS     Duration Track
--------------------------------------------------------------------------------
DR12      -0.70 dB   -16.72 dB      6:20 01-Black Sabbath
DR12      -3.41 dB   -17.20 dB      4:23 02-The Wizard
DR14      -0.70 dB   -18.56 dB      7:58 03-War Pigs
DR11      -3.54 dB   -16.38 dB      2:50 04-Paranoid
DR12      -3.63 dB   -18.31 dB      4:53 05-Electric Funeral
DR13      -3.23 dB   -18.52 dB      6:16 06-Fairies Wear Boots
DR12      -2.03 dB   -16.08 dB      5:06 07-Sweet Leaf
DR13      -0.70 dB   -17.98 dB      5:22 08-Children Of The Grave
DR12      -1.30 dB   -15.51 dB      5:26 09-Lord Of This World
DR12      -0.70 dB   -15.54 dB      8:01 10-Wheels Of Confusion
DR12      -2.22 dB   -16.53 dB      3:10 11-Tomorrow's Dream
DR12      -0.78 dB   -16.83 dB      4:43 12-Supernaut
DR12      -1.84 dB   -15.37 dB      5:47 13-Sabbath Bloody Sabbath
DR12      -0.90 dB   -15.63 dB      5:42 14-Killing Yourself To Live
DR11      -0.87 dB   -14.81 dB      4:01 15-Hole In The Sky
DR11      -2.70 dB   -16.49 dB      6:29 16-Symptom Of The Universe
DR13      -0.70 dB   -17.10 dB      8:42 17-The Writ

Number of tracks:  17
Official DR value: DR12

Samplerate:        96000 Hz
Channels:          2
Bits per sample:   24
Bitrate:           2957 kbps
Codec:             FLAC




Not my rip. Any questions about the
equipment used can be found in the
lineage text.

Support the artists!

Sharing since 2010
Thanks for Seeding!
Cheers;)
88
Category:Music > FLAC
Lang:Unknown/NA
Total Size:1.96 GB
Info Hash:4fd1a63164da31a02e5501dc8de688dec229d63f
Added By:vtwin88cube
Date Added:21-07-2021 01:15:54

  

Files

File List: 
 File Size
00.-Black Sabbath - This Is Black Sabbath.m3u445.00 B
01.-Black Sabbath.flac139 MB
02.-The Wizard.flac102 MB
03.-War Pigs.flac156 MB
04.-Paranoid.flac55 MB
05.-Electric Funeral.flac94 MB
06.-Fairies Wear Boots.flac122 MB
07.-Sweet Leaf.flac105 MB
08.-Children Of The Grave.flac110 MB
09.-Lord Of This World.flac114 MB
10.-Wheels Of Confusion.flac178 MB
11.-Tomorrow's Dream.flac69 MB
12.-Supernaut.flac105 MB
13.-Sabbath Bloody Sabbath.flac127 MB
14.-Killing Yourself To Live.flac124 MB
15.-Hole In The Sky.flac88 MB
16.-Symptom Of The Universe.flac136 MB
17.-The Writ.flac185 MB
DR12.txt1.77 kB
folder.png237.57 kB
lineage.txt989.00 B



Comments

There are currently no comments. Be the first one to write something !