natkhat Ted Lasso S02E01 1 Sarpatta 2160p Out of Death 2021 Titanic The White Lotus S01E03 wrath of man ettv Cruella 2021 Space Jam A New Legacy 2021 Gunpowder Milkshake 2021 The Tomorrow War 2021 Wrath of Man 2021 Rick and Morty S05E05 Evil S02E06 Snake Eyes 2021 Power Book III Raising Kanan S01E02 Luca 2021 escape room f9 Wwe ted lasso Roswell New Mexico s03e01 evo Escape Room Tournament of Champions 2021 14 Phere Below Deck Mediterranean s06e05 Evil old fast and furious  jolt Superman and Lois Midnight in the Switchgrass 2021 fast and furious 9 Fast 9 Black Widow 2021 hostel daze the tomorrow war  wwe raw a quiet place part ii 2021 hungama 2 kingdom DC week chutzpah 0 Blood Red Sky 2021 Loki S01E06 Rick and Morty S05E06 batman Pig 2021 toofan Blood Red Sky xxx masters of the universe The Bachelorette S17E08 Infinite 2021 Jungle Cruise 2021 HINDI 2021 mALAYALAM loki Old 2021 Tamil  Animal kingdom the flash The Boss Baby Family Business 2021 Animal Kingdom S05E03 rick and morty black widow sarpatta parambarai jungle cruise ita ddr brazzers the forever purge 2021 Stillwater 2021 Hindi american dad snake eyes g.i. joe origins 2021 Snake eyes beats mimi Hitmans Wifes Bodyguard 2021 haseen dillruba Jolt 2021 F9 2021 Mimi 2021 
Warning! Use a V.P.N when Downloading Torrents!
Your IP Address is . Location
Your Internet Provider can see when you download torrents! Hide your IP Address with a V.P.N
ETTV warns: You should use V.P.N to hide your torrenting. HIDE ME NOW
ETTV Recommended TV Shows
Holby.City.S23E17.720p.HDTV.x264-ORGANiC[ettv] torrent
Deadliest.Catch.S17E14.The.Crush.720p.WEB.h264-CAFFEiNE[ettv] torrent
Modern.Marvels.S21E01.720p.WEB.h264-BAE[ettv] torrent
David.Makes.Man.S02E06.1080p.WEBRip.x264-CAKES[ettv] torrent
Motherland.Fort.Salem.S02E06.XviD-AFG[ettv] torrent
Body.Cam.S04E07.720p.WEB.h264-BAE[ettv] torrent

ETTV Recommended SD
The.Last.Letter.From.Your.Lover.2021.HDRip.XviD.AC3-EVO torrent
Assassins.Vow.2021.HDRip.XviD.AC3-EVO torrent
The.Christmas.Dance.2021.HDRip.XviD.AC3-EVO torrent
Meander.2021.HDRip.XviD.B4ND1T69 torrent

ETTV Recommended HD
Jolt (2021)[VEBRip 1080p x264 by alE13 AC3][Audio Eng\PL][Sub Eng\PL][Eng] torrent
Blood Red Sky 2021 1080p WEB-Rip H264 AC3 5-1 KINGDOM-RG torrent
For.Your.Eyes.Only.1981.1080p.BluRay.10bit.x265-HazMatt.mkv torrent
Luca.2021.1080p.Bluray.DTS-HD.MA.7.1.X264-EVO torrent

ETTV Recommended UHD
American.Hustle.2013.4K.SDR.2160p.WEBDL Ita Eng x265-NAHOM torrent
A.Quiet.Place.2018.BDRip.2160p.UHD.HDR.Multilang.TrueHD.DD5.1.gerald99 torrent
A.Quiet.Place.Part.II.2020.BDRip.2160p.UHD.HDR.Multilang.TrueHD.DD5.1.gerald99 torrent
Pokémon.Detective.Pikachu.2019.2160p.UHD.BluRay.REMUX.HDR.HEVC.Aymos.7.1-SYS.mkv torrent
Passengers.2016.2160p.UHD.BluRay.REMUX.HDR.HEVC.ATMOS.7.1-SYS.mkv torrent
Snatch.2000.BDRip.2160p.UHD.HDR.Eng.TrueHD.DD5.1.gerald99 torrent

ETTV Recommended Cam
Fast.And.Furious.9.2021. CAM NEW SOURCE CLEAN SomeCoontS torrent
Escape Room: Tournament of Champions (2021) 720p CAMRip [Hindi-Sub] x264 1XBET torrent
Snake.Eyes.2021.720p.HDCAM.SLOTSLIGHTS.mkv torrent
Off.the.Rails.2021.720p.HDCAM.SLOTSLIGHTS.mkv torrent

ETTV Recommended Foreign
Skinwalker (2021) 1080p WEBRip Latino Subbed torrent
The.Hate.U.Give - Il.Coraggio.Della.Verita.2018.iTA.ENG.AC3.SUB.iTA.ENG.BluRay.1080p.x264.jeddak-MIRCrew torrent
Tempting Hearts 2021 1080p Chinese HDRip HC HEVC H265 BONE torrent
Jolt-Rabbia assassina (2021) ITA-ENG Ac3 5.1 WEBRip 1080p H264 [ArMor] torrent
Come True (2020) ITA-ENG Ac3 5.1 BDRip 1080p H264 [ArMor] torrent
Miss Fisher & the Crypt of Tears (2020) BluRay 1080p.H264 Ita Eng AC3 5.1 Sub Ita Eng - realDMDJ torrent

ETTV Recommended Misc
Rock Classics (ETTV)  Playlist Mp3~320   kbps~ Beats⭐ torrent
Collection Ed Sheeran (ETTV)  Playlist Mp3~320   kbps~ Beats⭐ torrent
Bruce Springsteen - Boss Collection '73-'02 (PBTHAL 24-96) [FLAC] vtwin88cube torrent
21 Savage Complete Collection (ETTV)  Playlist Mp3~320   kbps~ Beats⭐ torrent
500 Greatest  Rock Songs Of All Time  (ETTV)  Playlist Mp3~320   kbps~ Beats⭐ torrent
Soulja Boy - Big Draco (ETTV)  Playlist Mp3~320   kbps~ Beats⭐ torrent


Download Torrent "Mauli (2018) [Hindi Dub] 1080p WEB-DLRip Saicord"

IMDB Details
Description:

An unconventional cop with a devil-may-care attitude sets out to end a ruthless criminal's reign of terror over a village.

Genre:

Action

Download Torrent (Magnet)
Download Torrent (File)

Seeds: 26
Leechers: 16

Uploaded by:
MelbetCinema7


Category:
Movies > Bollywood


Details
Title:Mauli (2018) [Hindi Dub] 1080p WEB-DLRip Saicord
Description:


https://www.imdb.com/title/tt8826936






Video
ID                                       : 1
Format                                   : AVC
Format/Info                              : Advanced Video Codec
Format profile                           : [email protected]
Format settings                          : CABAC / 4 Ref Frames
Format settings, CABAC                   : Yes
Format settings, Reference frames        : 4 frames
Codec ID                                 : V_MPEG4/ISO/AVC
Duration                                 : 2 h 17 min
Bit rate                                 : 3 997 kb/s
Width                                    : 1 920 pixels
Height                                   : 1 080 pixels
Display aspect ratio                     : 16:9
Frame rate mode                          : Constant
Frame rate                               : 24.000 FPS
Color space                              : YUV
Chroma subsampling                       : 4:2:0
Bit depth                                : 8 bits
Scan type                                : Progressive
Bits/(Pixel*Frame)                       : 0.080
Stream size                              : 3.83 GiB (95%)
Default                                  : Yes
Forced                                   : No
Color range                              : Limited
Color primaries                          : BT.709
Transfer characteristics                 : BT.709
Matrix coefficients                      : BT.709

Audio
ID                                       : 2
Format                                   : AAC LC
Format/Info                              : Advanced Audio Codec Low Complexity
Codec ID                                 : A_AAC-2
Duration                                 : 2 h 17 min
Bit rate                                 : 192 kb/s
Channel(s)                               : 2 channels
Channel layout                           : L R
Sampling rate                            : 48.0 kHz
Frame rate                               : 46.875 FPS (1024 SPF)
Compression mode                         : Lossy
Stream size                              : 186 MiB (5%)
Language                                 : Hindi
Default                                  : Yes
Forced                                   : No
Category:Movies > Bollywood
Lang:Hindi  Hindi
Total Size:4.02 GB
Info Hash:49f867fee251fe5e1a852bee3b0a3e41459712de
Added By:MelbetCinema7
Date Added:21-07-2021 18:20:55

Files

File List: 
 File Size
Mauli (2018) [Hindi Dub] 1080p WEB-DLRip Saicord.mkv4.02 GB



Comments

There are currently no comments. Be the first one to write something !