Evil  Rick and Morty S05E06 hostel daze season 2 Ted Lasso black widow 2021 toofan Superman and Lois Rick and Morty S05E05 jungle cruise kingdom a quiet place evo Loki S01E06 Gunpowder Milkshake 2021 fast and furious 9  Haseen dilruba Old Snake Eyes G.I. Joe Origins 2021 Nobody 2021 Animal Kingdom S05E03 the tomorrow war  Masters of the Universe F9 2021 black widow Midnight in the Switchgrass 2021 fast and furious  brazzers ufc Pig 2021 The Chi S04E09 Wrath of Man 2021 Charmed s03e18 Escape Room Tournament of Champions 2021 Blood Red Sky sarpatta tamil Old 2021 natkhat malayalam  The flash sarpatta Parambarai ettv snake eyes 2021 0 Animal kingdom ddr jungle cruise 2021 jolt 2160p escape room fast 9 loki  beats Stillwater 2021 wrath of man hostel daze hindi 2021  haseen dillruba Evil S02E06 the tomorrow war 2021 hindi Luca 2021 The Forever Purge 2021 Hitmans Wifes Bodyguard 2021 f9 Out of Death 2021 14 phere lucifer a quiet place part ii 2021 Power Book III Raising Kanan S01E02 xxx Blood Red Sky 2021 Ted Lasso S02E01 feels like ishq ita jolt 2021 Hungama 2 The Boss Baby Family Business 2021 Space Jam A New Legacy 2021 Titanic snake eyes wwe infinite 2021 rick and morty Cruella 2021 No Sudden Move 2021 chutzpah The White Lotus S01E03 space jam 
Warning! Use a V.P.N when Downloading Torrents!
Your IP Address is . Location
Your Internet Provider can see when you download torrents! Hide your IP Address with a V.P.N
ETTV warns: You should use V.P.N to hide your torrenting. HIDE ME NOW
ETTV Recommended TV Shows
Dateline.Secrets.Uncovered.S10E18.720p.WEB.h264-BAE[ettv] torrent
Snapped.S29E00.Notorious.The.Cleveland.Strangler.720p.WEB.h264-BAE[ettv] torrent
North.Woods.Law.S16E04.1080p.WEB.h264-BAE[ettv] torrent
Adorableness.S01E03.1080p.WEB.h264-BAE[ettv] torrent
Rick.and.Morty.S05E06.1080p.WEBRip.x264-BAE[ettv] torrent
60.Minutes.S53E45.720p.WEB.h264-BAE[ettv] torrent

ETTV Recommended SD
Strange.Company.2021.HDRip.XviD.AC3-EVO torrent
The.Last.Letter.From.Your.Lover.2021.HDRip.XviD.AC3-EVO torrent
Assassins.Vow.2021.HDRip.XviD.AC3-EVO torrent
The.Christmas.Dance.2021.HDRip.XviD.AC3-EVO torrent

ETTV Recommended HD
The.Christmas.Dance.2021.1080p.AMZN.WEB-DL.DDP5.1.H.264-EVO.mkv torrent
Assassins Vow 2021 1080p AMZN WEB-DL DDP2 0 H 264-EVO torrent
Jolt (2021)[VEBRip 1080p x264 by alE13 AC3][Audio Eng\PL][Sub Eng\PL][Eng] torrent
Blood Red Sky 2021 1080p WEB-Rip H264 AC3 5-1 KINGDOM-RG torrent

ETTV Recommended UHD
Snyders.Cut.Justice.League.2021.DISC1.Cropped.2160p.UHD.HDR.Multilang.TrueHD.DD5.1.gerald99 torrent
Snyders.Cut.Justice.League.2021.DISC2.Cropped.2160p.UHD.HDR.Multilang.TrueHD.DD5.1.gerald99 torrent
All.Is.True.2018.2160p.WEBRip.UHD.HDR.Eng.DTS-HD.MA.DD5.1.gerald99 torrent
American.Hustle.2013.4K.SDR.2160p.WEBDL Ita Eng x265-NAHOM torrent
A.Quiet.Place.2018.BDRip.2160p.UHD.HDR.Multilang.TrueHD.DD5.1.gerald99 torrent
A.Quiet.Place.Part.II.2020.BDRip.2160p.UHD.HDR.Multilang.TrueHD.DD5.1.gerald99 torrent

ETTV Recommended Cam
Fast.And.Furious.9.2021. CAM NEW SOURCE CLEAN SomeCoontS torrent
Werewolves Within (2021) 720p English New HDCAM x264 AAC By Full4Movies torrent
Escape Room: Tournament of Champions (2021) 720p CAMRip [Hindi-Sub] x264 1XBET torrent
Snake.Eyes.2021.720p.HDCAM.SLOTSLIGHTS torrent

ETTV Recommended Foreign
The.Night.Clerk - I.Segreti.Della.Notte.2020.iTA.ENG.AC3.SUB.iTA.ENG.BluRay.1080p.x264.jeddak-MIRCrew torrent
She Wang Dao (Giant Snake) 2021 HDRip Chinese 1080p HC H264 torrent
Hard Night Falling (2019) ITA AC3 WEBRIP 1080p H264 - LZ .mkv torrent
Super.Pacifier.2020.CHINESE.1080p.WEB-DL.H264-Mkvking torrent
Skinwalker (2021) 1080p WEBRip Latino Subbed torrent
The.Hate.U.Give - Il.Coraggio.Della.Verita.2018.iTA.ENG.AC3.SUB.iTA.ENG.BluRay.1080p.x264.jeddak-MIRCrew torrent

ETTV Recommended Misc
Love Themes Vol 1 Vol 2 (by Ennio Morricone) YG⭐ torrent
100 Hits of Swingin Sixties (ETTV)  Playlist Mp3~320   kbps~ Beats⭐ torrent
Kanye West – DONDA  (ETTV) Album  Mp3 ~320 kbps Beats⭐ torrent
Lil Duke & Young Stoner Life - Duke Hefner (ETTV) Album  Mp3 ~320 kbps Beats⭐ torrent
Dave - We're All Alone In This Together (ETTV) Album  Mp3 ~320 kbps Beats⭐ torrent
Yung Bleu - Moon Boy (ETTV) Album  Mp3 ~320 kbps Beats⭐ torrent


Download Torrent "Midnight in the Switchgrass (2021) [Hindi Dub] 1080p BDRip Saicord"

IMDB Details
Description:

An FBI agent and Florida State officer team up to investigate a string of unsolved murder cases.

Genre:

Thriller

Download Torrent (Magnet)
Download Torrent (File)

Seeds: 17
Leechers: 21

Uploaded by:
MelbetCinema7


Category:
Movies > HD 1080p (Great for large screens)


Details
Title:Midnight in the Switchgrass (2021) [Hindi Dub] 1080p BDRip Saicord
Description:


https://www.imdb.com/title/tt11656220






Video
ID                                       : 1
Format                                   : AVC
Format/Info                              : Advanced Video Codec
Format profile                           : [email protected]
Format settings                          : CABAC / 4 Ref Frames
Format settings, CABAC                   : Yes
Format settings, Reference frames        : 4 frames
Codec ID                                 : V_MPEG4/ISO/AVC
Duration                                 : 1 h 40 min
Bit rate                                 : 3 743 kb/s
Width                                    : 1 920 pixels
Height                                   : 804 pixels
Display aspect ratio                     : 2.40:1
Frame rate mode                          : Constant
Frame rate                               : 23.976 (24000/1001) FPS
Color space                              : YUV
Chroma subsampling                       : 4:2:0
Bit depth                                : 8 bits
Scan type                                : Progressive
Bits/(Pixel*Frame)                       : 0.101
Stream size                              : 2.62 GiB (95%)
Language                                 : English
Default                                  : Yes
Forced                                   : No
Color range                              : Limited
Color primaries                          : BT.709
Transfer characteristics                 : BT.709
Matrix coefficients                      : BT.709

Audio
ID                                       : 2
Format                                   : AAC LC
Format/Info                              : Advanced Audio Codec Low Complexity
Codec ID                                 : A_AAC-2
Duration                                 : 1 h 40 min
Bit rate                                 : 192 kb/s
Channel(s)                               : 2 channels
Channel layout                           : L R
Sampling rate                            : 48.0 kHz
Frame rate                               : 46.875 FPS (1024 SPF)
Compression mode                         : Lossy
Stream size                              : 136 MiB (5%)
Language                                 : Hindi
Default                                  : Yes
Forced                                   : No
Category:Movies > HD 1080p
Lang:Hindi  Hindi
Total Size:2.76 GB
Info Hash:229276fc8951881260188d1700890ecd7db07d17
Added By:MelbetCinema7
Date Added:21-07-2021 19:39:07

Files

File List: 
 File Size
Midnight in the Switchgrass (2021) [Hindi Dub] 1080p BDRip Saicord.mkv2.76 GB



Comments

There are currently no comments. Be the first one to write something !