kingdom natkhat  Animal Kingdom S05E03 Superman and Lois  Good Witch s07e10 hindi hostel daze sarpatta tamil hindi 2021 Stillwater 2021 the flash 14 phere wwe wrath of man F9 2021 masters of the universe Last Week Tonight with John Oliver S08E18 Blood Red Sky 2021 Escape Room Tournament of Champions 2021 Power Book III Raising Kanan S01E02 jolt fast and furious  pig 2021 Space Jam A New Legacy 2021 the tomorrow war  Out of Death 2021 Loki S01E06 Jungle Cruise 2021 Old ddr 0 Hungama 2 The Chi S04E09 loki fast and furious 9 feels like Ishq  No Sudden Move 2021 ettv jungle cruise  black widow 2021 malayalam Evil S02E06 Mimi 2021 The Boss Baby Family Business 2021 evo beats Brazzers toofan snake eyes escape room black widow Sarpatta Parambarai haseen dillruba F9 snake eyes g.i. joe origins 2021 Midnight in the Switchgrass 2021 old 2021 Luca 2021 snake eyes 2021 Chutzpah Animal kingdom Hitmans Wifes Bodyguard 2021 Charmed s03e18 blood red sky Rick and Morty s05e06 The Forever Purge 2021 A Quiet Place Part II 2021 ted lasso Infinite 2021 ita  last week tonight Wrath of Man 2021 mimi Big Brother s23e08 Cruella 2021 Rick and Morty  Rick and Morty S05E05 Jolt 2021 2160p Nobody 2021 evil The Tomorrow War 2021 Gunpowder Milkshake 2021 Ted Lasso S02E01 Fast 9 The White Lotus S01E03 xxx 
Warning! Use a V.P.N when Downloading Torrents!
Your IP Address is . Location
Your Internet Provider can see when you download torrents! Hide your IP Address with a V.P.N
ETTV warns: You should use V.P.N to hide your torrenting. HIDE ME NOW
ETTV Recommended TV Shows
WWE Monday Night Raw 2021 07 26 HDTV x264-NWCHD [TJET] torrent
AEW DARK Elevation 26th July 2021 720p WEBRip h264-TJ [TJET] torrent
American.Dad.S17E14.1080p.WEBRip.x264-BAE[ettv] torrent
Charmed.to.Death.S01E02.720p.WEB.h264-BAE[ettv] torrent
The.Walking.Dead.Origins.S01E02.XviD-AFG[ettv] torrent
American.Pickers.S22E18.720p.WEB.h264-BAE[ettv] torrent

ETTV Recommended SD
Strange.Company.2021.HDRip.XviD.AC3-EVO torrent
The.Last.Letter.From.Your.Lover.2021.HDRip.XviD.AC3-EVO torrent
Assassins.Vow.2021.HDRip.XviD.AC3-EVO torrent
The.Christmas.Dance.2021.HDRip.XviD.AC3-EVO torrent

ETTV Recommended HD
Assassins Vow 2021 1080p AMZN WEB-DL DDP2 0 H 264-EVO torrent
Jolt (2021)[VEBRip 1080p x264 by alE13 AC3][Audio Eng\PL][Sub Eng\PL][Eng] torrent
Blood Red Sky 2021 1080p WEB-Rip H264 AC3 5-1 KINGDOM-RG torrent
For.Your.Eyes.Only.1981.1080p.BluRay.10bit.x265-HazMatt.mkv torrent

ETTV Recommended UHD
American.Hustle.2013.4K.SDR.2160p.WEBDL Ita Eng x265-NAHOM torrent
A.Quiet.Place.2018.BDRip.2160p.UHD.HDR.Multilang.TrueHD.DD5.1.gerald99 torrent
A.Quiet.Place.Part.II.2020.BDRip.2160p.UHD.HDR.Multilang.TrueHD.DD5.1.gerald99 torrent
Pokémon.Detective.Pikachu.2019.2160p.UHD.BluRay.REMUX.HDR.HEVC.Aymos.7.1-SYS.mkv torrent
Passengers.2016.2160p.UHD.BluRay.REMUX.HDR.HEVC.ATMOS.7.1-SYS.mkv torrent
Snatch.2000.BDRip.2160p.UHD.HDR.Eng.TrueHD.DD5.1.gerald99 torrent

ETTV Recommended Cam
Fast.And.Furious.9.2021. CAM NEW SOURCE CLEAN SomeCoontS torrent
Werewolves Within (2021) 720p English New HDCAM x264 AAC By Full4Movies torrent
Escape Room: Tournament of Champions (2021) 720p CAMRip [Hindi-Sub] x264 1XBET torrent
Snake.Eyes.2021.720p.HDCAM.SLOTSLIGHTS torrent

ETTV Recommended Foreign
She Wang Dao (Giant Snake) 2021 HDRip Chinese 1080p HC H264 torrent
Hard Night Falling (2019) ITA AC3 WEBRIP 1080p H264 - LZ .mkv torrent
Super.Pacifier.2020.CHINESE.1080p.WEB-DL.H264-Mkvking torrent
Skinwalker (2021) 1080p WEBRip Latino Subbed torrent
The.Hate.U.Give - Il.Coraggio.Della.Verita.2018.iTA.ENG.AC3.SUB.iTA.ENG.BluRay.1080p.x264.jeddak-MIRCrew torrent
Tempting Hearts 2021 1080p Chinese HDRip HC HEVC H265 BONE torrent

ETTV Recommended Misc
Black Sabbath - Master of Reality (2021) FLAC torrent
Elkie Brooks - Electric Lady (2005) Flac torrent
Future - EVOL (2021) FLAC torrent
The Apple Music List (ETTV)  Playlist Mp3~320   kbps~ Beats⭐ torrent
Rock Classics (ETTV)  Playlist Mp3~320   kbps~ Beats⭐ torrent
Collection Ed Sheeran (ETTV)  Playlist Mp3~320   kbps~ Beats⭐ torrent


Download Torrent "Superman and Lois S01E13 Fail Safe 1080p AMZN WEBrip x265 DDP5.1 D0ct0rLew[..."

IMDB Details
Description:

Follow the world's most famous super hero and comic books' most famous journalist as they deal with all the stress, pressures, and complexities that come with being working parents in today's society.

Genre:

Action, Adventure, Drama

Download Torrent (Magnet)
Download Torrent (File)

Seeds: 241
Leechers: 55

Uploaded by:
D0ct0rLew


Category:
TV > HEVC/x265 (Super High Quality, Small size, high CPU usage)


Details
Title:Superman and Lois S01E13 Fail Safe 1080p AMZN WEBrip x265 DDP5.1 D0ct0rLew[...
Description:



[


Media Information

Unique ID                                : 285676349376166780522036039100470039622 (0xD6EB43791B1A620B78B419B0FCF29446)
Complete name                            : Superman and Lois S01E13 Fail Safe 1080p AMZN WEBrip x265 DDP5.1 D0ct0rLew[SEV] .mkv
Format                                   : Matroska
Format version                           : Version 4
File size                                : 1 006 MiB
Duration                                 : 44 min 26 s
Overall bit rate                         : 3 166 kb/s
Movie name                               : Superman and Lois S01E13 Fail Safe 1080p AMZN WEBrip x265 DDP5.1 D0ct0rLew[SEV]
Encoded date                             : UTC 2021-07-22 04:37:50
Writing application                      : mkvmerge v56.1.0 ('My Friend') 64-bit
Writing library                          : libebml v1.4.2 + libmatroska v1.6.4
Attachments                              : AgendaMediumExtraCondensed.ttf

Video
ID                                       : 1
Format                                   : HEVC
Format/Info                              : High Efficiency Video Coding
Format profile                           : Main [email protected]@Main
Codec ID                                 : V_MPEGH/ISO/HEVC
Duration                                 : 44 min 26 s
Bit rate                                 : 2 523 kb/s
Width                                    : 1 920 pixels
Height                                   : 872 pixels
Display aspect ratio                     : 2.2:1
Frame rate mode                          : Constant
Frame rate                               : 23.976 (24000/1001) FPS
Color space                              : YUV
Chroma subsampling                       : 4:2:0
Bit depth                                : 10 bits
Bits/(Pixel*Frame)                       : 0.063
Stream size                              : 802 MiB (80%)
Writing library                          : x265 3.5+10-82786fccc:[Windows][MSVC 1929][64 bit] 10bit
Encoding settings                        : cpuid=1111039 / frame-threads=3 / numa-pools=8 / wpp / no-pmode / no-pme / no-psnr / no-ssim / log-level=2 / input-csp=1 / input-res=1920x872 / interlace=0 / total-frames=1440 / level-idc=0 / high-tier=1 / uhd-bd=0 / ref=4 / no-allow-non-conformance / no-repeat-headers / annexb / no-aud / no-eob / no-eos / no-hrd / info / hash=0 / no-temporal-layers / open-gop / min-keyint=24 / keyint=240 / gop-lookahead=0 / bframes=16 / b-adapt=2 / b-pyramid / bframe-bias=0 / rc-lookahead=90 / lookahead-slices=4 / scenecut=40 / hist-scenecut=0 / radl=0 / no-splice / no-intra-refresh / ctu=64 / min-cu-size=8 / no-rect / no-amp / max-tu-size=32 / tu-inter-depth=4 / tu-intra-depth=4 / limit-tu=0 / rdoq-level=2 / dynamic-rd=0.00 / no-ssim-rd / signhide / no-tskip / nr-intra=0 / nr-inter=0 / no-constrained-intra / no-strong-intra-smoothing / max-merge=5 / limit-refs=0 / limit-modes / me=3 / subme=7 / merange=92 / temporal-mvp / no-frame-dup / no-hme / weightp / no-weightb / no-analyze-src-pics / deblock=0:0 / sao / no-sao-non-deblock / rd=4 / selective-sao=4 / no-early-skip / rskip / no-fast-intra / no-tskip-fast / no-cu-lossless / no-b-intra / no-splitrd-skip / rdpenalty=0 / psy-rd=1.80 / psy-rdoq=1.00 / no-rd-refine / no-lossless / cbqpoffs=0 / crqpoffs=0 / rc=crf / crf=18.5 / qcomp=0.69 / qpstep=4 / stats-write=0 / stats-read=0 / ipratio=1.40 / pbratio=1.30 / aq-mode=4 / aq-strength=1.40 / cutree / zone-count=0 / no-strict-cbr / qg-size=32 / no-rc-grain / qpmax=69 / qpmin=0 / no-const-vbv / sar=1 / overscan=0 / videoformat=5 / range=0 / colorprim=2 / transfer=2 / colormatrix=2 / chromaloc=0 / display-window=0 / cll=0,0 / min-luma=0 / max-luma=1023 / log2-max-poc-lsb=8 / vui-timing-info / vui-hrd-info / slices=1 / no-opt-qp-pps / no-opt-ref-list-length-pps / no-multi-pass-opt-rps / scenecut-bias=0.05 / hist-threshold=0.03 / no-opt-cu-delta-qp / no-aq-motion / no-hdr10 / no-hdr10-opt / no-dhdr10-opt / no-idr-recovery-sei / analysis-reuse-level=0 / analysis-save-reuse-level=0 / analysis-load-reuse-level=0 / scale-factor=0 / refine-intra=0 / refine-inter=0 / refine-mv=1 / refine-ctu-distortion=0 / no-limit-sao / ctu-info=0 / no-lowpass-dct / refine-analysis-type=0 / copy-pic=1 / max-ausize-factor=1.0 / no-dynamic-refine / no-single-sei / no-hevc-aq / no-svt / no-field / qp-adaptation-range=1.00 / scenecut-aware-qp=0conformance-window-offsets / right=0 / bottom=0 / decoder-max-rate=0 / no-vbv-live-multi-pass
Default                                  : Yes
Forced                                   : No

Audio
ID                                       : 2
Format                                   : E-AC-3
Format/Info                              : Enhanced AC-3
Commercial name                          : Dolby Digital Plus
Codec ID                                 : A_EAC3
Duration                                 : 44 min 26 s
Bit rate mode                            : Constant
Bit rate                                 : 640 kb/s
Channel(s)                               : 6 channels
Channel layout                           : L R C LFE Ls Rs
Sampling rate                            : 48.0 kHz
Frame rate                               : 31.250 FPS (1536 SPF)
Compression mode                         : Lossy
Stream size                              : 203 MiB (20%)
Language                                 : English
Service kind                             : Complete Main
Default                                  : Yes
Forced                                   : No

Text
ID                                       : 3
Format                                   : UTF-8
Codec ID                                 : S_TEXT/UTF8
Codec ID/Info                            : UTF-8 Plain Text
Duration                                 : 44 min 20 s
Bit rate                                 : 93 b/s
Count of elements                        : 955
Stream size                              : 30.3 KiB (0%)
Title                                    : SDH
Language                                 : English
Default                                  : No
Forced                                   : No

We have no issue with individuals posting or re-uploading our torrents on a platform we aren't on. However, if this is something you'd like to do, please do so in a 'as-is' format. We ask that you do not create a new torrent, include all descriptions you see above including the SEV logo, tags, notes and screenshots.
If you'd like to become a permanent poster on a website we don't post to, feel free to get in contact with a Sublime Encoded Video member.

We are recruiting/training new members for SEV & seedbox providers as well as people to help out with subtitles.
As you already know, we deliver quality, so you know the standard.
If you're interested, feel free to contact any of the team members.

Category:TV > HEVC/x265
Lang:English  English
Total Size:1,006 MB
Info Hash:9a57aecea87b24355b8e7ec8cc7ea51398fa17b4
Added By:D0ct0rLew
Date Added:22-07-2021 06:30:24

  

Files

File List: 
 File Size
Contact SEV.txt1.03 kB
Superman and Lois S01E13 Fail Safe 1080p AMZN WEBrip x265 DDP5.1 D0ct0rLew[SEV] .mkv1,006 MB



Comments

There are currently no comments. Be the first one to write something !