Evil  Rick and Morty S05E06 hostel daze season 2 Ted Lasso black widow 2021 toofan Superman and Lois Rick and Morty S05E05 jungle cruise kingdom a quiet place evo Loki S01E06 Gunpowder Milkshake 2021 fast and furious 9  Haseen dilruba Old Snake Eyes G.I. Joe Origins 2021 Nobody 2021 Animal Kingdom S05E03 the tomorrow war  Masters of the Universe F9 2021 black widow Midnight in the Switchgrass 2021 fast and furious  brazzers ufc Pig 2021 The Chi S04E09 Wrath of Man 2021 Charmed s03e18 Escape Room Tournament of Champions 2021 Blood Red Sky sarpatta tamil Old 2021 natkhat malayalam  The flash sarpatta Parambarai ettv snake eyes 2021 0 Animal kingdom ddr jungle cruise 2021 jolt 2160p escape room fast 9 loki  beats Stillwater 2021 wrath of man hostel daze hindi 2021  haseen dillruba Evil S02E06 the tomorrow war 2021 hindi Luca 2021 The Forever Purge 2021 Hitmans Wifes Bodyguard 2021 f9 Out of Death 2021 14 phere lucifer a quiet place part ii 2021 Power Book III Raising Kanan S01E02 xxx Blood Red Sky 2021 Ted Lasso S02E01 feels like ishq ita jolt 2021 Hungama 2 The Boss Baby Family Business 2021 Space Jam A New Legacy 2021 Titanic snake eyes wwe infinite 2021 rick and morty Cruella 2021 No Sudden Move 2021 chutzpah The White Lotus S01E03 space jam 
Warning! Use a V.P.N when Downloading Torrents!
Your IP Address is . Location
Your Internet Provider can see when you download torrents! Hide your IP Address with a V.P.N
ETTV warns: You should use V.P.N to hide your torrenting. HIDE ME NOW
ETTV Recommended TV Shows
Dateline.Secrets.Uncovered.S10E18.720p.WEB.h264-BAE[ettv] torrent
Snapped.S29E00.Notorious.The.Cleveland.Strangler.720p.WEB.h264-BAE[ettv] torrent
North.Woods.Law.S16E04.1080p.WEB.h264-BAE[ettv] torrent
Adorableness.S01E03.1080p.WEB.h264-BAE[ettv] torrent
Rick.and.Morty.S05E06.1080p.WEBRip.x264-BAE[ettv] torrent
60.Minutes.S53E45.720p.WEB.h264-BAE[ettv] torrent

ETTV Recommended SD
Strange.Company.2021.HDRip.XviD.AC3-EVO torrent
The.Last.Letter.From.Your.Lover.2021.HDRip.XviD.AC3-EVO torrent
Assassins.Vow.2021.HDRip.XviD.AC3-EVO torrent
The.Christmas.Dance.2021.HDRip.XviD.AC3-EVO torrent

ETTV Recommended HD
The.Christmas.Dance.2021.1080p.AMZN.WEB-DL.DDP5.1.H.264-EVO.mkv torrent
Assassins Vow 2021 1080p AMZN WEB-DL DDP2 0 H 264-EVO torrent
Jolt (2021)[VEBRip 1080p x264 by alE13 AC3][Audio Eng\PL][Sub Eng\PL][Eng] torrent
Blood Red Sky 2021 1080p WEB-Rip H264 AC3 5-1 KINGDOM-RG torrent

ETTV Recommended UHD
Snyders.Cut.Justice.League.2021.DISC1.Cropped.2160p.UHD.HDR.Multilang.TrueHD.DD5.1.gerald99 torrent
Snyders.Cut.Justice.League.2021.DISC2.Cropped.2160p.UHD.HDR.Multilang.TrueHD.DD5.1.gerald99 torrent
All.Is.True.2018.2160p.WEBRip.UHD.HDR.Eng.DTS-HD.MA.DD5.1.gerald99 torrent
American.Hustle.2013.4K.SDR.2160p.WEBDL Ita Eng x265-NAHOM torrent
A.Quiet.Place.2018.BDRip.2160p.UHD.HDR.Multilang.TrueHD.DD5.1.gerald99 torrent
A.Quiet.Place.Part.II.2020.BDRip.2160p.UHD.HDR.Multilang.TrueHD.DD5.1.gerald99 torrent

ETTV Recommended Cam
Fast.And.Furious.9.2021. CAM NEW SOURCE CLEAN SomeCoontS torrent
Werewolves Within (2021) 720p English New HDCAM x264 AAC By Full4Movies torrent
Escape Room: Tournament of Champions (2021) 720p CAMRip [Hindi-Sub] x264 1XBET torrent
Snake.Eyes.2021.720p.HDCAM.SLOTSLIGHTS torrent

ETTV Recommended Foreign
The.Night.Clerk - I.Segreti.Della.Notte.2020.iTA.ENG.AC3.SUB.iTA.ENG.BluRay.1080p.x264.jeddak-MIRCrew torrent
She Wang Dao (Giant Snake) 2021 HDRip Chinese 1080p HC H264 torrent
Hard Night Falling (2019) ITA AC3 WEBRIP 1080p H264 - LZ .mkv torrent
Super.Pacifier.2020.CHINESE.1080p.WEB-DL.H264-Mkvking torrent
Skinwalker (2021) 1080p WEBRip Latino Subbed torrent
The.Hate.U.Give - Il.Coraggio.Della.Verita.2018.iTA.ENG.AC3.SUB.iTA.ENG.BluRay.1080p.x264.jeddak-MIRCrew torrent

ETTV Recommended Misc
Love Themes Vol 1 Vol 2 (by Ennio Morricone) YG⭐ torrent
100 Hits of Swingin Sixties (ETTV)  Playlist Mp3~320   kbps~ Beats⭐ torrent
Kanye West – DONDA  (ETTV) Album  Mp3 ~320 kbps Beats⭐ torrent
Lil Duke & Young Stoner Life - Duke Hefner (ETTV) Album  Mp3 ~320 kbps Beats⭐ torrent
Dave - We're All Alone In This Together (ETTV) Album  Mp3 ~320 kbps Beats⭐ torrent
Yung Bleu - Moon Boy (ETTV) Album  Mp3 ~320 kbps Beats⭐ torrent


Download Torrent "Link.1986.1080p.BluRay.x264-CREEPY"

IMDB Details
Description:

When a female zoology student is invited to a remote seaside mansion to assist a primatology professor with his experiments involving chimpanzees, dangerous events start to occur, all involving the intelligent 45-year-old chimp, Link

Genre:

Horror

Download Torrent (Magnet)
Download Torrent (File)

Seeds: 41
Leechers: 26

Uploaded by:
artsubs


Category:
Movies > HD 1080p (Great for large screens)


Details
Title:Link.1986.1080p.BluRay.x264-CREEPY
Description:
Release: Link.1986.1080p.BluRay.x264-CREEPY



IMDB: https://www.imdb.com/title/tt0091415

Subtitle: English 

Plot: When a female zoology student is invited to a remote seaside mansion to assist a primatology professor with his experiments involving chimpanzees, dangerous events start to occur, all involving the intelligent 45-year-old chimp, Link.

Complete name               : Link.1986.1080p.BluRay.x264-CREEPY.mkv
Format                      : Matroska
Format version              : Version 4
File size                   : 2.76 GiB
Duration                    : 1 h 43 min
Overall bit rate            : 3 819 kb/s
Encoded date                : UTC 2021-07-20 02:08:41
Writing application         : mkvmerge v57.0.0 ('Till The End') 64-bit
Writing library             : libebml v1.4.2 + libmatroska v1.6.4

Video
ID                          : 1
Format                      : AVC
Format/Info                 : Advanced Video Codec
Format profile              : [email protected]
Format settings             : CABAC / 4 Ref Frames
Format settings, CABAC      : Yes
Format settings, Reference  : 4 frames
Codec ID                    : V_MPEG4/ISO/AVC
Duration                    : 1 h 43 min
Bit rate                    : 3 500 kb/s
Width                       : 1 800 pixels
Height                      : 1 080 pixels
Display aspect ratio        : 5:3
Frame rate mode             : Constant
Frame rate                  : 24.000 FPS
Color space                 : YUV
Chroma subsampling          : 4:2:0
Bit depth                   : 8 bits
Scan type                   : Progressive
Bits/(Pixel*Frame)          : 0.075
Stream size                 : 2.53 GiB (92%)
Writing library             : x264 core 157 r2935 545de2f
Encoding settings           : cabac=1 / ref=4 / deblock=1:-2:-2 / analyse=0x3:0x133 / me=umh / subme=10 / psy=1 / psy_rd=1.00:0.25 / mixed_ref=1 / me_range=32 / chroma_me=1 / trellis=2 / 8x8dct=1 / cqm=0 / deadzone=6,6 / fast_pskip=1 / chroma_qp_offset=-4 / threads=6 / lookahead_threads=1 / sliced_threads=0 / nr=0 / decimate=0 / interlaced=0 / bluray_compat=0 / constrained_intra=0 / bframes=8 / b_pyramid=2 / b_adapt=2 / b_bias=0 / direct=3 / weightb=1 / open_gop=0 / weightp=2 / keyint=240 / keyint_min=24 / scenecut=40 / intra_refresh=0 / rc_lookahead=60 / rc=2pass / mbtree=1 / bitrate=3500 / ratetol=1.0 / qcomp=0.75 / qpmin=0 / qpmax=69 / qpstep=4 / cplxblur=20.0 / qblur=0.5 / vbv_maxrate=25000 / vbv_bufsize=78125 / nal_hrd=none / filler=0 / ip_ratio=1.10 / aq=3:1.20
Default                     : Yes
Forced                      : No
Color range                 : Limited
Color primaries             : BT.709
Transfer characteristics    : BT.709
Matrix coefficients         : BT.709

Audio
ID                          : 2
Format                      : AAC LC
Format/Info                 : Advanced Audio Codec Low Complexity
Codec ID                    : A_AAC-2
Duration                    : 1 h 43 min
Bit rate                    : 320 kb/s
Channel(s)                  : 2 channels
Channel layout              : L R
Sampling rate               : 48.0 kHz
Frame rate                  : 46.875 FPS (1024 SPF)
Compression mode            : Lossy
Delay relative to video     : -21 ms
Stream size                 : 237 MiB (8%)
Language                    : English
Default                     : Yes
Forced                      : No

Text
ID                          : 3
Format                      : UTF-8
Codec ID                    : S_TEXT/UTF8
Codec ID/Info               : UTF-8 Plain Text
Duration                    : 1 h 38 min
Bit rate                    : 39 b/s
Count of elements           : 862
Stream size                 : 28.4 KiB (0%)
Language                    : English
Default                     : Yes
Forced                      : No

Menu
00:00:00.000                : :Program Start
00:02:00.333                : :Bad Reception
00:06:02.833                : :Dr. Steven J. Phillip
00:12:23.917                : :House by the Sea
00:17:04.250                : :"Welcome to Northfield Range"
00:21:15.708                : :Rules of the House
00:26:07.625                : :I.Q. Test
00:33:02.375                : :Tantrum
00:37:34.958                : :Kitchen Conflict
00:42:31.542                : :The Discovery
00:46:48.375                : :Dog Attack
00:50:29.292                : :Peeping Link
00:52:26.833                : :Show Of Strength
00:56:34.042                : :Fun and Games
01:02:13.333                : :Car Trouble
01:08:05.000                : :Shelter
01:12:14.583                : :Double-Barreled Danger
01:15:56.042                : :Fresh Meat
01:20:04.917                : :Taking a Tumble
01:24:29.167                : :Lord of the Manor
01:27:43.375                : :Rampage
01:30:49.125                : :"We've Gotta Out-Think Him!"
01:34:04.083                : :Master of Fire
01:39:38.000                : :Furry Hitchhiker
01:40:58.458                : :End Credits


SCREENSHOTS:









Category:Movies > HD 1080p
Lang:English  English
Total Size:2.76 GB
Info Hash:364dbff605acf1d3aae0a2b0e3ddceeb042e39a7
Added By:artsubs
Date Added:22-07-2021 15:53:26

  

Files

File List: 
 File Size
Link.1986.1080p.BluRay.x264-CREEPY.mkv2.76 GB



Comments

There are currently no comments. Be the first one to write something !