Hide Your IP Address when Downloading Torrents!
Your IP Address is 182.232.198.186. Location Thailand,
Your Internet Provider can see when you download torrents! Hide your IP Address with a VPN
ETTV warns: You should use VPN to hide your torrenting. Hide IP with VPN

Download "The Hate U Give - Il Coraggio Della Verita 2018 iTA ENG AC3 SUB iTA ENG BluRay 1080p x264 jeddak-MIRCrew"

Title:
The Hate U Give - Il Coraggio Della Verita 2018 iTA ENG AC3 SUB iTA ENG BluRay 1080p x264 jeddak-MIRCrew
Category:
Movies > HD 1080p
Language:
Italian
Total Size:
2.87 GB
Info Hash:
e59325a4855f0100bba513f124673e368837c57d
Added By:
jeddak
Date Added:
2 months ago
  • Seeds: 60
  • Leechers: 12
  • Uploaded By: jeddak
Uploaders Description
 




Il Coraggio Della Verità - The Hate U Give


Titolo originale: The Hate U Give
Genere: Drammatico
Anno: 2018
Regia: George Tillman Jr.
Attori: Amandla Stenberg, Regina Hall, Russell Hornsby, Anthony Mackie, Issa Rae, Common, K.J. Apa, Algee Smith, Dominique Fishback, Sabrina Carpenter
Paese: USA
Durata: 133 min
Distribuzione: 20th Century Fox
Sceneggiatura: Audrey Wells
Fotografia: Mihai Malaimare Jr.
Montaggio: Alex Blatt, Craig Hayes
Musiche: Dustin O'Halloran
Produzione: Fox 2000 Pictures,State Street Pictures,Temple Hill Entertainment



Il Coraggio della Verità, il film diretto da George Tillman Jr., segue la storia della giovane Starr Carter (Amandla Stenberg).
Starr si muove tra due mondi: abita in un quartiere di colore dove imperversano le gang ma frequenta una scuola prestigiosa, soprattutto per volere della madre, determinata a costruire un futuro migliore per i suoi figli. Vive quasi una doppia vita, a metà tra gli amici di infanzia e i nuovi compagni. Questo fragile equilibrio va in frantumi quando Starr assiste all'uccisione di Khalil, il suo migliore amico, per mano della polizia. Ed era disarmato.
Il caso conquista le prime pagine dei giornali. Quando appare chiaro che la polizia non ha alcun interesse a chiarire l'episodio, la protesta scende in strada e il quartiere di Starr si trasforma in teatro di guerriglia. C'è una cosa che tutti vogliono sapere: cos'è successo davvero quella notte? Ma l'unica che possa dare una risposta è Starr.
Quello che dirà - o non dirà - può distruggere la sua comunità. Può mettere in pericolo la sua stessa vita.





















General
Unique ID                   : 240692938877688883280300431649282520199 (0xB513C61A4B3323D49BA2909A3604F487)
Complete name               : Il.Coraggio.Della.Verita.The.Heat.U.Give.2018.iTA.ENG.AC3.SUB.iTA.ENG.BluRay.1080p.x264.jeddak-MIRCrew.mkv
Format                      : Matroska
Format version              : Version 2
File size                   : 2.87 GiB
Duration                    : 2 h 13 min
Overall bit rate            : 3 086 kb/s
Movie name                  : Il.Coraggio.Della.Verita.The.Heat.U.Give.2018.iTA.ENG.AC3.SUB.iTA.ENG.BluRay.1080p.x264.jeddak-MIRCrew
Encoded date                : UTC 2021-04-05 18:54:19
Writing application         : mkvmerge v5.6.0 ('Kenya Kane') built on May 27 2012 16:44:04
Writing library             : libebml v1.2.3 + libmatroska v1.3.0 / Lavf58.29.100

Video
ID                          : 1
Format                      : AVC
Format/Info                 : Advanced Video Codec
Format profile              : [email protected]
Format settings             : CABAC / 4 Ref Frames
Format settings, CABAC      : Yes
Format settings, Reference  : 4 frames
Codec ID                    : V_MPEG4/ISO/AVC
Duration                    : 2 h 13 min
Bit rate                    : 2 200 kb/s
Width                       : 1 920 pixels
Height                      : 800 pixels
Display aspect ratio        : 2.40:1
Frame rate mode             : Constant
Frame rate                  : 23.976 (24000/1001) FPS
Color space                 : YUV
Chroma subsampling          : 4:2:0
Bit depth                   : 8 bits
Scan type                   : Progressive
Bits/(Pixel*Frame)          : 0.060
Stream size                 : 1.98 GiB (69%)
Title                       : ...::: jeddak MIRCrew :::...
Writing library             : x264 core 148
Encoding settings           : cabac=1 / ref=3 / deblock=1:-1:-1 / analyse=0x3:0x113 / me=hex / subme=7 / psy=1 / psy_rd=1.00:0.15 / mixed_ref=1 / me_range=16 / chroma_me=1 / trellis=1 / 8x8dct=1 / cqm=0 / deadzone=21,11 / fast_pskip=1 / chroma_qp_offset=-3 / threads=6 / lookahead_threads=1 / sliced_threads=0 / nr=0 / decimate=1 / interlaced=0 / bluray_compat=0 / constrained_intra=0 / bframes=3 / b_pyramid=2 / b_adapt=1 / b_bias=0 / direct=1 / weightb=1 / open_gop=0 / weightp=2 / keyint=240 / keyint_min=24 / scenecut=40 / intra_refresh=0 / rc_lookahead=40 / rc=abr / mbtree=1 / bitrate=2200 / ratetol=1.0 / qcomp=0.60 / qpmin=0 / qpmax=69 / qpstep=4 / vbv_maxrate=62500 / vbv_bufsize=78125 / nal_hrd=none / filler=0 / ip_ratio=1.40 / aq=1:1.00
Default                     : Yes
Forced                      : No
Color range                 : Limited
Color primaries             : BT.709
Transfer characteristics    : BT.709
Matrix coefficients         : BT.709

Audio #1
ID                          : 2
Format                      : AC-3
Format/Info                 : Audio Coding 3
Commercial name             : Dolby Digital
Codec ID                    : A_AC3
Duration                    : 2 h 13 min
Bit rate mode               : Constant
Bit rate                    : 448 kb/s
Channel(s)                  : 6 channels
Channel layout              : L R C LFE Ls Rs
Sampling rate               : 48.0 kHz
Frame rate                  : 31.250 FPS (1536 SPF)
Compression mode            : Lossy
Delay relative to video     : -5 ms
Stream size                 : 426 MiB (15%)
Title                       : iTA AC3 5.1
Language                    : Italian
Service kind                : Complete Main
Default                     : Yes
Forced                      : No

Audio #2
ID                          : 3
Format                      : AC-3
Format/Info                 : Audio Coding 3
Commercial name             : Dolby Digital
Codec ID                    : A_AC3
Duration                    : 2 h 13 min
Bit rate mode               : Constant
Bit rate                    : 448 kb/s
Channel(s)                  : 6 channels
Channel layout              : L R C LFE Ls Rs
Sampling rate               : 48.0 kHz
Frame rate                  : 31.250 FPS (1536 SPF)
Compression mode            : Lossy
Delay relative to video     : -5 ms
Stream size                 : 426 MiB (15%)
Title                       : ENG AC3 5.1
Language                    : English
Service kind                : Complete Main
Default                     : No
Forced                      : No

Text #1
ID                          : 4
Format                      : ASS
Codec ID                    : S_TEXT/ASS
Codec ID/Info               : Advanced Sub Station Alpha
Duration                    : 2 h 12 min
Compression mode            : Lossless
Title                       : iTA FORCED
Language                    : Italian
Default                     : Yes
Forced                      : Yes

Text #2
ID                          : 5
Format                      : ASS
Codec ID                    : S_TEXT/ASS
Codec ID/Info               : Advanced Sub Station Alpha
Duration                    : 2 h 12 min
Compression mode            : Lossless
Title                       : iTA REGULAR
Language                    : Italian
Default                     : No
Forced                      : No

Text #3
ID                          : 6
Format                      : ASS
Codec ID                    : S_TEXT/ASS
Codec ID/Info               : Advanced Sub Station Alpha
Duration                    : 2 h 12 min
Compression mode            : Lossless
Title                       : ENG NON UDENTI
Language                    : English
Default                     : No
Forced                      : No

Menu
00:00:00.000                : :Capitolo 01
00:03:55.777                : :Capitolo 02
00:08:18.081                : :Capitolo 03
00:13:14.252                : :Capitolo 04
00:19:32.129                : :Capitolo 05
00:24:48.320                : :Capitolo 06
00:29:34.314                : :Capitolo 07
00:34:54.217                : :Capitolo 08
00:40:09.532                : :Capitolo 09
00:45:05.411                : :Capitolo 10
00:50:09.215                : :Capitolo 11
00:58:27.587                : :Capitolo 12
01:03:58.376                : :Capitolo 13
01:10:00.988                : :Capitolo 14
01:14:51.278                : :Capitolo 15
01:19:50.786                : :Capitolo 16
01:27:09.599                : :Capitolo 17
01:32:11.735                : :Capitolo 18
01:37:36.225                : :Capitolo 19
01:43:59.066                : :Capitolo 20
01:49:39.156                : :Capitolo 21
01:56:20.432                : :Capitolo 22
01:58:00.156                : :Capitolo 23
02:03:50.965                : :Capitolo 24

File List:

Il Coraggio Della Verita The Heat U Give 2018 iTA ENG AC3 SUB iTA ENG BluRay 1080p x264 jeddak-MIRCrew mkv
....
2.87 GB