Hide Your IP Address when Downloading Torrents!
Your IP Address is 182.232.198.186. Location Thailand,
Your Internet Provider can see when you download torrents! Hide your IP Address with a VPN
ETTV warns: You should use VPN to hide your torrenting. Hide IP with VPN

Download "The Imitation Game 2014 iTA ENG AC3 SUB iTA ENG BluRay 1080p x264 jeddak-MIRCrew"

Title:
The Imitation Game 2014 iTA ENG AC3 SUB iTA ENG BluRay 1080p x264 jeddak-MIRCrew
Category:
Movies > HD 1080p
Language:
Italian
Total Size:
2.71 GB
Info Hash:
7da515534afc21ac2983de4bc31b7df112b79f62
Added By:
jeddak
Date Added:
1 month ago
  • Seeds: 268
  • Leechers: 39
  • Uploaded By: jeddak
Uploaders Description
 




The Imitation Game


Titolo originale: The Imitation Game
Genere: Biografico, Drammatico, Thriller
Anno: 2014
Regia: Morten Tyldum
Attori: Benedict Cumberbatch, Keira Knightley, Charles Dance, Matthew Goode, Mark Strong, Rory Kinnear, Tuppence Middleton, Allen Leech, Steven Waddington, Tom Goodman-Hill, Matthew Beard, James Northcote
Paese: USA
Durata: 114 min
Distribuzione: Videa
Sceneggiatura: Graham Moore
Fotografia: Óscar Faura
Montaggio: William Goldenberg
Musiche: Alexandre Desplat
Produzione: Black Bear Pictures, Bristol Automotive



The Imitation Game è un film del 2014 diretto da Morten Tyldum.
Il protagonista della vicenda è il matematico Alan Turing (Benedict Cumberbatch) che si mette al servizio del governo inglese, impegnato a decriptare i messaggi segreti dei nazisti, per porre fine al conflitto mondiale. Decodificare i risultati della macchina Enigma è un’impresa impossibile ma le grandi abilità di Turing convincono il Comandante Alastair Denniston ad inserirlo nell’équipe di esperti matematici.
Il carattere solitario e scontroso di Alan, tuttavia, rende difficile la collaborazione con i membri della squadra, capeggiata dal maestro di scacchi Hugh Alexander (Matthew Goode). La strategia inglese si rivela ben presto poco proficua, dal momento che i nazisti cambiano codice ogni ventiquattro ore, rendendo inutile la decriptazione.
Grazie al sostegno del capo del Servizio di spionaggio, Stewart Menzies (Mark Strong), Turing ottiene la direzione del team e decide di cambiare metodo d’approccio, realizzando una macchina che decifri in breve tempo ogni singolo messaggio.
Per selezionare i suoi nuovi compagni, Alan pubblica un complicato cruciverba e convoca tutti coloro che saranno riusciti a risolverlo in non più di dieci minuti. Tra i candidati, la giovane Joan Clarke (Keira Knightley) ottiene risultati formidabili. Con la benedizione di Winston Churchill, il gruppo progetta il nuovo macchinario, Cristopher, mentre i nemici del matematico fanno di tutto per sollevarlo dal suo incarico.
Joan è una risorsa fondamentale ma, in quanto donna in un’epoca patriarcale, il suo destino è assoggettato al volere della famiglia. Preoccupato di perdere la sua miglior sottoposta, Alan le chiede di sposarlo e, seppur a conoscenza del segreto del crittoanalista, la ragazza accetta.
Pur rivelandosi vincenti, le idee di Turing costringeranno i matematici a prende una decisione drastica per risolvere un problema morale di insostenibile portata…





















General
Unique ID                   : 237264996637982768283801715594500598536 (0xB27F938066CEA35CB7FE84E1AEA56B08)
Complete name               : The.Imitation.Game.2014.iTA.ENG.AC3.SUB.iTA.ENG.BluRay.1080p.x264.jeddak-MIRCrew.mkv
Format                      : Matroska
Format version              : Version 2
File size                   : 2.71 GiB
Duration                    : 1 h 54 min
Overall bit rate            : 3 385 kb/s
Movie name                  : The.Imitation.Game.2014.iTA.ENG.AC3.SUB.iTA.ENG.BluRay.1080p.x264.jeddak-MIRCrew
Encoded date                : UTC 2021-08-21 06:43:58
Writing application         : mkvmerge v5.6.0 ('Kenya Kane') built on May 27 2012 16:44:04
Writing library             : libebml v1.2.3 + libmatroska v1.3.0 / Lavf58.29.100

Video
ID                          : 1
Format                      : AVC
Format/Info                 : Advanced Video Codec
Format profile              : [email protected]
Format settings             : CABAC / 4 Ref Frames
Format settings, CABAC      : Yes
Format settings, Reference  : 4 frames
Codec ID                    : V_MPEG4/ISO/AVC
Duration                    : 1 h 54 min
Bit rate                    : 2 500 kb/s
Width                       : 1 920 pixels
Height                      : 800 pixels
Display aspect ratio        : 2.40:1
Frame rate mode             : Constant
Frame rate                  : 24.000 FPS
Color space                 : YUV
Chroma subsampling          : 4:2:0
Bit depth                   : 8 bits
Scan type                   : Progressive
Bits/(Pixel*Frame)          : 0.068
Stream size                 : 1.94 GiB (72%)
Title                       : ...::: jeddak MIRCrew :::...
Writing library             : x264 core 148
Encoding settings           : cabac=1 / ref=3 / deblock=1:-1:-1 / analyse=0x3:0x113 / me=hex / subme=7 / psy=1 / psy_rd=1.00:0.15 / mixed_ref=1 / me_range=16 / chroma_me=1 / trellis=1 / 8x8dct=1 / cqm=0 / deadzone=21,11 / fast_pskip=1 / chroma_qp_offset=-3 / threads=6 / lookahead_threads=1 / sliced_threads=0 / nr=0 / decimate=1 / interlaced=0 / bluray_compat=0 / constrained_intra=0 / bframes=3 / b_pyramid=2 / b_adapt=1 / b_bias=0 / direct=1 / weightb=1 / open_gop=0 / weightp=2 / keyint=240 / keyint_min=24 / scenecut=40 / intra_refresh=0 / rc_lookahead=40 / rc=abr / mbtree=1 / bitrate=2500 / ratetol=1.0 / qcomp=0.60 / qpmin=0 / qpmax=69 / qpstep=4 / vbv_maxrate=62500 / vbv_bufsize=78125 / nal_hrd=none / filler=0 / ip_ratio=1.40 / aq=1:1.00
Default                     : Yes
Forced                      : No
Color range                 : Limited
Color primaries             : BT.709
Transfer characteristics    : BT.709
Matrix coefficients         : BT.709

Audio #1
ID                          : 2
Format                      : AC-3
Format/Info                 : Audio Coding 3
Commercial name             : Dolby Digital
Codec ID                    : A_AC3
Duration                    : 1 h 54 min
Bit rate mode               : Constant
Bit rate                    : 448 kb/s
Channel(s)                  : 6 channels
Channel layout              : L R C LFE Ls Rs
Sampling rate               : 48.0 kHz
Frame rate                  : 31.250 FPS (1536 SPF)
Compression mode            : Lossy
Delay relative to video     : -5 ms
Stream size                 : 367 MiB (13%)
Title                       : iTA AC3 5.1
Language                    : Italian
Service kind                : Complete Main
Default                     : Yes
Forced                      : No

Audio #2
ID                          : 3
Format                      : AC-3
Format/Info                 : Audio Coding 3
Commercial name             : Dolby Digital
Codec ID                    : A_AC3
Duration                    : 1 h 54 min
Bit rate mode               : Constant
Bit rate                    : 448 kb/s
Channel(s)                  : 6 channels
Channel layout              : L R C LFE Ls Rs
Sampling rate               : 48.0 kHz
Frame rate                  : 31.250 FPS (1536 SPF)
Compression mode            : Lossy
Delay relative to video     : -5 ms
Stream size                 : 367 MiB (13%)
Title                       : ENG AC3 5.1
Language                    : English
Service kind                : Complete Main
Default                     : No
Forced                      : No

Text #1
ID                          : 4
Format                      : PGS
Muxing mode                 : zlib
Codec ID                    : S_HDMV/PGS
Codec ID/Info               : Picture based subtitle format used on BDs/HD-DVDs
Duration                    : 1 h 47 min
Title                       : iTA NON UDENTI - PGS
Language                    : Italian
Default                     : No
Forced                      : No

Text #2
ID                          : 5
Format                      : UTF-8
Codec ID                    : S_TEXT/UTF8
Codec ID/Info               : UTF-8 Plain Text
Title                       : iTA NON UDENTI - SRT
Language                    : Italian
Default                     : No
Forced                      : No

Text #3
ID                          : 6
Format                      : PGS
Muxing mode                 : zlib
Codec ID                    : S_HDMV/PGS
Codec ID/Info               : Picture based subtitle format used on BDs/HD-DVDs
Duration                    : 1 h 50 min
Title                       : ENG REGULAR - PGS
Language                    : English
Default                     : No
Forced                      : No

Text #4
ID                          : 7
Format                      : UTF-8
Codec ID                    : S_TEXT/UTF8
Codec ID/Info               : UTF-8 Plain Text
Title                       : ENG REGULAR - SRT
Language                    : English
Default                     : No
Forced                      : No

Text #5
ID                          : 8
Format                      : UTF-8
Codec ID                    : S_TEXT/UTF8
Codec ID/Info               : UTF-8 Plain Text
Title                       : ENG FORCED - SRT
Language                    : English
Default                     : No
Forced                      : No

Menu
00:00:00.000                : :Capitolo 01
00:05:52.167                : :Capitolo 02
00:12:12.917                : :Capitolo 03
00:17:26.625                : :Capitolo 04
00:24:30.792                : :Capitolo 05
00:29:25.750                : :Capitolo 06
00:38:24.500                : :Capitolo 07
00:44:55.333                : :Capitolo 08
00:50:45.458                : :Capitolo 09
00:59:33.542                : :Capitolo 10
01:06:09.708                : :Capitolo 11
01:14:17.167                : :Capitolo 12
01:23:55.667                : :Capitolo 13
01:35:18.208                : :Capitolo 14
01:42:18.375                : :Capitolo 15
01:50:12.375                : :Capitolo 16

File List:

The Imitation Game 2014 iTA ENG AC3 SUB iTA ENG BluRay 1080p x264 jeddak-MIRCrew mkv
....
2.71 GB